<?xml version="1.0" standalone="no"?>
<!DOCTYPE svg PUBLIC "-//W3C//DTD SVG 1.1//EN" "http://www.w3.org/Graphics/SVG/1.1/DTD/svg11.dtd">
<svg xmlns="http://www.w3.org/2000/svg">
<defs >
<font id="JetBrainsMono" horiz-adv-x="602" ><font-face
    font-family="JetBrains Mono"
    units-per-em="1000"
    panose-1="2 0 0 9 0 0 0 0 0 0"
    ascent="1020"
    descent="-300"
    alphabetic="0" />
<glyph unicode=" " horiz-adv-x="600" />
<glyph unicode="!" horiz-adv-x="600" d="M268 215L247 610V730H353V610L332 215H268ZM285 -5Q259 -5 242 12T225 55Q225 81 242 98T285 115H315Q344 115 359 99T375 56Q375 30 358 13T315 -5H285Z" />
<glyph unicode="&quot;" horiz-adv-x="600" d="M365 430L353 640V730H450V640L439 430H365ZM162 430L150 640V730H247V640L236 430H162Z" />
<glyph unicode="#" horiz-adv-x="600" d="M83 0L120 200H35V265H132L168 465H70V530H180L217 730H287L250 530H410L447 730H517L480 530H565V465H468L432 265H530V200H420L383 0H313L350 200H190L153 0H83ZM202 265H362L398 465H238L202 265Z" />
<glyph unicode="$" horiz-adv-x="600" d="M275 -140V-9Q181 -1 128 51T72 190H162Q162 141 191 110T275 72V334L248 342Q173 365 133 419T92 546Q92 626 141 678T275 738V870H335V739Q418 731 468 679T519 545H429Q429 592 405 621T335 658V410L375 397Q448 374
488 319T528 190Q528 108 476 54T335 -9V-140H275ZM335 72Q384 80 411 110T438 188Q438 232 415 265T347 311L335 315V72ZM275 389V658Q231 651 207 624T182 554Q182 502 214 467T306 422L275 389Z" />
<glyph unicode="%" horiz-adv-x="600" d="M14 0L512 730H586L88 0H14ZM445 -5Q382 -5 344 31T306 130V195Q306 258 344 294T445 330Q508 330 546 294T584 195V130Q584 67 546 31T445 -5ZM445 64Q510 64 510 130V195Q510 262 445 262Q380 262 380 195V130Q380 64
445 64ZM155 400Q92 400 54 436T16 535V600Q16 663 54 699T155 735Q218 735 256 699T294 600V535Q294 472 256 436T155 400ZM155 468Q220 468 220 535V600Q220 667 155 667Q123 667 107 651T90 600V535Q90 501 106 485T155 468Z" />
<glyph unicode="&amp;" horiz-adv-x="600" d="M230 -10Q148 -10 102 34T55 155V280Q55 333 82 369T161 421L154 431Q123 473 109 509T95 581Q95 629 117 665T180 720T275 740Q333 740 375 719T441 660T464 569H374Q374 598 362 619T328 651T275 662Q248 662 228
652T196 624T185 579Q185 554 195 525T225 470L397 233L468 360H562L449 161L566 0H467L404 87Q330 -10 230 -10ZM235 70Q269 70 300 92T354 155L207 358Q176 353 161 333T145 280V155Q145 115 168 93T235 70Z" />
<glyph unicode="&apos;" horiz-adv-x="600" d="M258 430L246 580V730H343V580L332 430H258Z" />
<glyph unicode="(" horiz-adv-x="600" d="M485 -120Q343 -85 264 18T185 270V450Q185 548 221 627T325 762T485 840V755Q421 740 374 698T301 592T275 450V270Q275 193 300 130T373 26T485 -31V-120Z" />
<glyph unicode=")" horiz-adv-x="600" d="M115 -120V-31Q180 -16 227 25T299 130T325 270V450Q325 529 299 592T226 697T115 755V840Q208 817 275 762T378 628T415 450V270Q415 121 336 18T115 -120Z" />
<glyph unicode="*" horiz-adv-x="600" d="M181 94L109 144L163 222Q176 241 194 259T230 294T263 323L260 330Q241 332 217 334T169 342T123 355L35 387L65 470L153 438Q174 431 196 419T240 393T276 367L281 371Q276 390 270 414T260 465T256 515V610H344V515Q344
492 340 466T330 415T318 371L323 367Q339 379 359 392T402 418T446 438L535 470L565 387L476 355Q456 348 432 343T383 335T340 330L336 322Q351 310 369 294T405 259T435 222L490 144L418 94L363 172Q351 190 340 213T319 259T303 300H296Q290 282 281 259T260
213T235 172L181 94Z" />
<glyph unicode="+" horiz-adv-x="600" d="M256 95V290H65V370H256V565H344V370H535V290H344V95H256Z" />
<glyph unicode="," horiz-adv-x="600" d="M165 -160L245 151H375L245 -160H165Z" />
<glyph unicode="-" horiz-adv-x="600" d="M140 290V370H460V290H140Z" />
<glyph unicode="." horiz-adv-x="600" d="M300 -10Q262 -10 240 12T217 71Q217 110 239 133T300 156Q338 156 360 133T383 71Q383 34 361 12T300 -10Z" />
<glyph unicode="/" horiz-adv-x="600" d="M75 -110L430 830H525L170 -110H75Z" />
<glyph unicode="0" horiz-adv-x="600" d="M300 -10Q233 -10 184 16T107 91T80 205V525Q80 591 107 639T183 713T300 740Q368 740 417 714T493 639T520 525V205Q520 140 493 92T417 17T300 -10ZM300 67Q360 67 396 105T433 205V525Q433 586 397 624T300 663Q240
663 204 625T167 525V205Q167 144 203 106T300 67ZM300 306Q273 306 257 323T240 368Q240 395 256 411T300 428Q327 428 343 412T360 368Q360 340 344 323T300 306Z" />
<glyph unicode="1" horiz-adv-x="600" d="M90 0V82H288V655L90 507V607L255 730H378V82H540V0H90Z" />
<glyph unicode="2" horiz-adv-x="600" d="M92 0V92L315 329Q372 390 398 437T424 529Q424 590 391 625T299 660Q235 660 199 624T162 525H72Q74 591 102 639T181 714T299 740Q365 740 413 715T488 642T514 530Q514 468 481 407T373 268L193 82H526V0H92Z" />
<glyph unicode="3" horiz-adv-x="600" d="M289 -10Q223 -10 174 16T97 90T70 200H160Q160 139 194 105T290 70Q352 70 386 106T420 200V252Q420 314 386 348T290 382H215V472L396 648H100V730H487V640L292 451V462Q392 462 451 405T510 252V200Q510 137 483 90T405
17T289 -10Z" />
<glyph unicode="4" horiz-adv-x="600" d="M410 0V160H80V301L369 730H467L170 282V242H410V420H500V0H410Z" />
<glyph unicode="5" horiz-adv-x="600" d="M298 -10Q209 -10 152 36T85 160H175Q180 117 212 94T299 70Q362 70 393 104T425 200V271Q425 333 394 367T300 401Q261 401 232 381T190 326H100L105 730H489V648H192L189 405H217L189 379Q189 426 226 453T327 480Q416
481 465 426T515 271V200Q515 103 458 47T298 -10Z" />
<glyph unicode="6" horiz-adv-x="600" d="M301 -10Q231 -10 179 19T97 102T68 225Q68 280 83 333T130 435L313 730H413L206 398L210 395Q229 423 262 438T336 453Q396 453 440 425T508 346T532 225Q532 155 503 102T423 20T301 -10ZM300 70Q364 70 403 112T442
225Q442 295 403 337T300 380Q236 380 197 338T158 225Q158 155 197 113T300 70Z" />
<glyph unicode="7" horiz-adv-x="600" d="M185 0L446 648H170V540H80V730H535V642L282 0H185Z" />
<glyph unicode="8" horiz-adv-x="600" d="M300 -10Q233 -10 184 13T107 81T80 184Q80 249 115 296T228 380L325 427Q369 448 393 482T417 557Q417 605 386 633T300 661Q246 661 215 633T183 556Q183 516 206 482T271 428L368 382Q448 345 484 298T520 184Q520
95 461 43T300 -10ZM300 70Q361 70 396 101T432 186Q432 229 409 264T343 320L247 367Q167 406 131 451T95 559Q95 615 120 656T191 719T300 741Q363 741 409 719T480 656T505 559Q505 496 469 452T350 366L254 319Q213 299 191 265T168 188Q168 134 203 102T300
70Z" />
<glyph unicode="9" horiz-adv-x="600" d="M187 0L394 332L390 335Q371 307 338 292T264 277Q205 277 161 305T92 384T68 505Q68 576 97 628T178 710T299 740Q369 740 421 711T503 629T532 505Q532 450 517 397T470 295L287 0H187ZM300 350Q364 350 403 392T442
505Q442 575 403 617T300 660Q236 660 197 618T158 505Q158 435 197 393T300 350Z" />
<glyph unicode=":" horiz-adv-x="600" d="M300 410Q263 410 240 430T217 485Q217 519 240 539T300 560Q338 560 360 540T383 485Q383 451 361 431T300 410ZM300 -10Q263 -10 240 10T217 65Q217 99 240 119T300 140Q338 140 360 120T383 65Q383 31 361 11T300 -10Z" />
<glyph unicode=";" horiz-adv-x="600" d="M170 -160L250 151H380L250 -160H170ZM290 410Q257 410 236 431T215 485Q215 517 236 538T290 560H310Q342 560 363 539T385 485Q385 452 364 431T310 410H290Z" />
<glyph unicode="&lt;" horiz-adv-x="600" d="M515 65L85 280V380L515 595V508L205 356Q186 347 170 341T145 332Q154 330 171 324T205 308L515 155V65Z" />
<glyph unicode="=" horiz-adv-x="600" d="M85 410V490H515V410H85ZM85 170V250H515V170H85Z" />
<glyph unicode="&gt;" horiz-adv-x="600" d="M85 65V152L395 304Q414 313 430 319T455 328Q446 330 429 336T395 352L85 505V595L515 380V280L85 65Z" />
<glyph unicode="?" horiz-adv-x="600" d="M211 205V385H261Q325 385 362 420T400 515Q400 574 363 609T260 645H135V730H260Q330 730 381 704T461 629T490 515Q490 458 466 413T400 340T301 310V205H211ZM240 -5Q214 -5 197 12T180 55Q180 81 197 98T240 115H270Q299
115 314 99T330 56Q330 30 313 13T270 -5H240Z" />
<glyph unicode="@" horiz-adv-x="600" d="M325 -180Q240 -180 177 -145T80 -44T45 110V450Q45 540 77 605T170 705T315 740Q391 740 446 711T530 626T560 495V65H489V120H461L480 140Q480 102 451 79T374 55Q309 55 275 94T240 210V330Q240 406 274 445T374 485Q422
485 451 462T480 399L466 420H490L480 490V495Q480 552 461 591T406 650T315 670Q225 670 175 612T125 450V110Q125 10 178 -47T325 -105H395V-180H325ZM400 118Q441 118 460 143T480 220V331Q480 378 461 400T400 422Q360 422 340 400T320 330V210Q320 163 340
141T400 118Z" />
<glyph unicode="A" horiz-adv-x="600" d="M50 0L240 730H361L550 0H459L411 194H190L142 0H50ZM208 270H392L336 495Q320 559 311 602T300 658Q298 645 289 602T264 496L208 270Z" />
<glyph unicode="B" horiz-adv-x="600" d="M93 0V730H300Q400 730 456 680T513 541Q513 491 492 454T433 397T340 378V393Q398 394 440 371T506 305T530 203Q530 141 504 95T430 25T315 0H93ZM181 81H305Q368 81 404 114T441 206Q441 266 405 303T305 341H181V81ZM181
419H299Q357 419 390 450T424 534Q424 587 391 618T300 649H181V419Z" />
<glyph unicode="C" horiz-adv-x="600" d="M304 -10Q238 -10 190 15T115 87T88 200V530Q88 596 114 643T189 715T304 740Q370 740 418 715T492 642T518 530H428Q428 592 396 625T304 659Q245 659 212 626T178 531V200Q178 138 211 105T304 71Q363 71 395 104T428
200H518Q518 136 492 89T418 16T304 -10Z" />
<glyph unicode="D" horiz-adv-x="600" d="M92 0V730H281Q352 730 403 703T483 627T512 511V220Q512 153 484 104T404 27T281 0H92ZM182 80H281Q347 80 384 117T422 220V511Q422 576 385 613T281 650H182V80Z" />
<glyph unicode="E" horiz-adv-x="600" d="M100 0V730H520V648H189V422H485V341H189V82H520V0H100Z" />
<glyph unicode="F" horiz-adv-x="600" d="M95 0V731H525V649H183V406H499V324H185V0H95Z" />
<glyph unicode="G" horiz-adv-x="600" d="M304 -10Q238 -10 190 15T115 87T88 200V530Q88 596 114 643T189 715T304 740Q370 740 418 715T492 642T518 530H428Q428 592 396 625T304 659Q245 659 212 626T178 531V200Q178 138 211 104T304 70Q363 70 395 104T428
200V290H280V372H518V200Q518 136 492 89T418 16T304 -10Z" />
<glyph unicode="H" horiz-adv-x="600" d="M93 0V730H183V418H417V730H507V0H417V336H183V0H93Z" />
<glyph unicode="I" horiz-adv-x="600" d="M105 0V82H254V648H105V730H495V648H346V82H495V0H105Z" />
<glyph unicode="J" horiz-adv-x="600" d="M270 -10Q165 -10 105 49T45 210H135Q135 143 170 107T270 70Q334 70 369 106T405 210V648H230V730H495V210Q495 108 435 49T270 -10Z" />
<glyph unicode="K" horiz-adv-x="600" d="M92 0V730H182V417H290L452 730H550L369 379L560 0H457L287 338H182V0H92Z" />
<glyph unicode="L" horiz-adv-x="600" d="M115 0V730H205V82H535V0H115Z" />
<glyph unicode="M" horiz-adv-x="600" d="M76 0V730H194L270 494Q281 462 290 431T303 382Q308 399 316 430T334 495L406 730H524V0H436V265Q436 309 439 365T447 479T457 591T467 685L349 320H254L135 685Q140 646 145 595T154 486T161 371T164 265V0H76Z" />
<glyph unicode="N" horiz-adv-x="600" d="M90 0V730H210L433 105Q431 130 429 166T425 243T423 320V730H510V0H390L168 625Q170 601 172 565T175 488T177 410V0H90Z" />
<glyph unicode="O" horiz-adv-x="600" d="M300 -10Q234 -10 187 15T114 87T88 200V530Q88 596 113 643T186 715T300 740Q366 740 413 715T486 643T512 531V200Q512 135 487 88T414 15T300 -10ZM300 71Q359 71 390 104T422 200V530Q422 592 391 625T300 659Q242
659 210 626T178 530V200Q178 138 210 105T300 71Z" />
<glyph unicode="P" horiz-adv-x="600" d="M92 0V730H327Q395 730 445 704T522 629T550 515Q550 450 523 402T445 327T327 300H182V0H92ZM182 381H327Q386 381 421 417T457 515Q457 577 422 613T327 649H182V381Z" />
<glyph unicode="Q" horiz-adv-x="600" d="M422 -180L315 -3L325 -9Q321 -9 315 -9T300 -10Q233 -10 184 16T107 91T80 205V525Q80 591 107 639T183 713T300 740Q368 740 417 714T493 639T520 525V205Q520 138 491 88T409 13L526 -180H422ZM300 70Q359 70 394 107T430
205V525Q430 587 395 623T300 660Q241 660 206 624T170 525V205Q170 144 205 107T300 70Z" />
<glyph unicode="R" horiz-adv-x="600" d="M92 0V730H318Q383 730 432 704T508 630T535 520Q535 446 497 393T392 320L545 0H439L299 310H182V0H92ZM182 391H318Q374 391 408 426T442 520Q442 579 408 614T318 649H182V391Z" />
<glyph unicode="S" horiz-adv-x="600" d="M304 -10Q232 -10 181 14T101 83T72 190H162Q162 135 199 103T304 71Q367 71 402 102T438 188Q438 232 415 265T347 311L248 342Q173 365 133 419T92 546Q92 605 118 648T193 716T306 741Q402 741 460 688T519 545H429Q429
599 397 629T305 660Q247 660 215 632T182 554Q182 509 206 476T275 429L375 397Q448 374 488 319T528 190Q528 130 500 85T422 15T304 -10Z" />
<glyph unicode="T" horiz-adv-x="600" d="M255 0V649H55V731H545V649H345V0H255Z" />
<glyph unicode="U" horiz-adv-x="600" d="M300 -10Q198 -10 144 46T90 200V730H180V200Q180 140 209 105T300 70Q360 70 390 105T420 200V730H510V200Q510 102 457 46T300 -10Z" />
<glyph unicode="V" horiz-adv-x="600" d="M238 0L50 730H143L267 234Q280 182 289 138T302 70Q306 93 314 137T336 234L459 730H550L361 0H238Z" />
<glyph unicode="W" horiz-adv-x="600" d="M109 0L25 730H111L166 190Q168 168 170 145T173 100T175 65Q177 79 178 100T182 144T188 190L256 730H349L411 190Q414 168 416 145T421 100T425 65Q426 79 427 100T431 144T436 190L493 730H575L489 0H376L314 550Q312
573 310 595T305 636T302 667Q301 655 299 636T294 595T289 550L222 0H109Z" />
<glyph unicode="X" horiz-adv-x="600" d="M40 0L250 370L51 730H155L268 514Q277 497 286 478T302 447Q307 458 316 477T335 514L450 730H549L350 376L560 0H457L332 232Q323 249 314 268T299 300Q294 288 285 269T266 233L140 0H40Z" />
<glyph unicode="Y" horiz-adv-x="600" d="M255 0V273L35 730H128L273 430Q285 405 292 388T301 362Q303 370 310 387T330 430L472 730H565L345 273V0H255Z" />
<glyph unicode="Z" horiz-adv-x="600" d="M85 0V90L414 648H90V730H505V640L176 82H515V0H85Z" />
<glyph unicode="[" horiz-adv-x="600" d="M205 -110V830H450V750H295V-30H450V-110H205Z" />
<glyph unicode="\" horiz-adv-x="600" d="M430 -110L75 830H170L525 -110H430Z" />
<glyph unicode="]" horiz-adv-x="600" d="M150 -110V-30H305V750H150V830H395V-110H150Z" />
<glyph unicode="^" horiz-adv-x="600" d="M80 340L259 730H343L520 340H439L327 598Q319 618 313 636T303 665Q299 655 292 637T276 598L161 340H80Z" />
<glyph unicode="_" horiz-adv-x="600" d="M60 -100V-25H540V-100H60Z" />
<glyph unicode="`" horiz-adv-x="600" d="M297 645L182 785H282L392 645H297Z" />
<glyph unicode="a" horiz-adv-x="600" d="M252 -10Q165 -10 115 34T65 155Q65 232 115 276T250 320H420V375Q420 426 390 453T303 481Q254 481 221 461T183 405H93Q102 476 160 518T305 560Q400 560 455 511T510 378V0H422V105H407L422 120Q422 60 376 25T252
-10ZM274 61Q338 61 379 93T420 175V253H252Q207 253 181 228T155 160Q155 114 186 88T274 61Z" />
<glyph unicode="b" horiz-adv-x="600" d="M332 -10Q264 -10 223 26T182 126L200 105H182V0H92V730H182V570L180 445H200L182 424Q182 486 223 523T332 560Q415 560 465 505T515 355V194Q515 100 465 45T332 -10ZM302 68Q359 68 392 102T425 200V350Q425 414 392
448T302 482Q247 482 215 447T182 350V200Q182 138 214 103T302 68Z" />
<glyph unicode="c" horiz-adv-x="600" d="M304 -10Q238 -10 189 15T112 87T85 200V350Q85 416 112 463T188 535T304 560Q399 560 457 509T518 370H428Q425 423 393 451T304 480Q245 480 210 447T175 351V200Q175 138 210 104T304 70Q360 70 392 99T428 180H518Q515
92 457 41T304 -10Z" />
<glyph unicode="d" horiz-adv-x="600" d="M268 -10Q186 -10 136 45T85 194V355Q85 450 135 505T268 560Q336 560 377 523T418 424L400 445H420L418 570V730H508V0H418V105H400L418 126Q418 63 377 27T268 -10ZM298 68Q354 68 386 103T418 200V350Q418 412 386
447T298 482Q241 482 208 448T175 350V200Q175 136 208 102T298 68Z" />
<glyph unicode="e" horiz-adv-x="600" d="M300 -10Q235 -10 187 16T112 89T85 200V350Q85 414 111 461T186 534T300 560Q365 560 413 534T488 461T515 350V253H173V200Q173 135 206 101T300 66Q352 66 384 84T423 140H513Q504 71 446 31T300 -10ZM427 313V350Q427
415 395 450T300 485Q239 485 206 450T173 350V321H434L427 313Z" />
<glyph unicode="f" horiz-adv-x="600" d="M220 0V413H60V495H220V590Q220 655 261 692T374 730H535V648H374Q343 648 327 634T310 590V495H535V413H310V0H220Z" />
<glyph unicode="g" horiz-adv-x="600" d="M161 -180V-98H336Q378 -98 397 -79T417 -20V50L419 150H401L418 165Q418 105 378 70T271 35Q186 35 137 90T88 240V356Q88 450 137 505T271 560Q338 560 378 525T418 430L401 445H418V550H507V-20Q507 -94 462 -137T335
-180H161ZM298 113Q354 113 386 148T418 245V350Q418 412 386 447T298 482Q241 482 210 448T178 350V245Q178 181 209 147T298 113Z" />
<glyph unicode="h" horiz-adv-x="600" d="M92 0V730H182V550V445H201L182 424Q182 489 221 524T329 560Q412 560 461 509T510 370V0H420V360Q420 419 389 451T303 484Q247 484 215 449T182 350V0H92Z" />
<glyph unicode="i" horiz-adv-x="600" d="M85 0V82H280V468H110V550H370V82H555V0H85ZM315 649Q282 649 263 666T244 712Q244 742 263 759T315 777Q348 777 367 760T386 712Q386 683 367 666T315 649Z" />
<glyph unicode="j" horiz-adv-x="600" d="M85 -180V-97H214Q276 -97 310 -64T345 31V468H115V550H435V31Q435 -66 375 -123T214 -180H85ZM385 649Q352 649 333 666T314 712Q314 742 333 759T385 777Q418 777 437 760T456 712Q456 683 437 666T385 649Z" />
<glyph unicode="k" horiz-adv-x="600" d="M95 0V730H185V323H291L451 550H554L369 288L557 0H452L292 245H185V0H95Z" />
<glyph unicode="l" horiz-adv-x="600" d="M375 0Q327 0 291 19T235 73T215 155V648H30V730H305V155Q305 121 324 102T375 82H550V0H375Z" />
<glyph unicode="m" horiz-adv-x="600" d="M66 0V550H145V484H163L149 460Q149 506 173 533T240 560Q286 560 311 526T336 430L309 484H351L332 460Q332 506 357 533T425 560Q477 560 505 521T534 418V0H451V419Q451 453 437 472T394 491Q367 491 352 473T336 420V0H264V419Q264
454 249 472T205 491Q177 491 163 473T149 420V0H66Z" />
<glyph unicode="n" horiz-adv-x="600" d="M92 0V550H182V445H201L182 424Q182 489 221 524T329 560Q412 560 461 509T510 370V0H420V360Q420 419 389 450T303 482Q247 482 215 448T182 350V0H92Z" />
<glyph unicode="o" horiz-adv-x="600" d="M300 -8Q234 -8 186 17T112 89T85 202V348Q85 414 111 461T186 533T300 558Q366 558 414 533T488 461T515 349V202Q515 137 489 90T414 17T300 -8ZM300 72Q359 72 392 105T425 202V348Q425 412 392 445T300 478Q242 478
209 445T175 348V202Q175 138 208 105T300 72Z" />
<glyph unicode="p" horiz-adv-x="600" d="M92 -180V550H182V445H200L182 424Q182 487 223 523T333 560Q416 560 465 506T515 356V195Q515 132 493 86T430 15T333 -10Q266 -10 224 27T182 126L200 105H180L182 -20V-180H92ZM303 68Q360 68 392 102T425 200V350Q425
414 393 448T303 482Q248 482 215 447T182 350V200Q182 138 215 103T303 68Z" />
<glyph unicode="q" horiz-adv-x="600" d="M418 -180V-20L420 105H400L418 126Q418 64 377 27T268 -10Q185 -10 137 45T88 195V356Q88 451 137 505T268 560Q336 560 377 524T418 424L400 445H418V550H508V-180H418ZM298 68Q354 68 386 103T418 200V350Q418 412
386 447T298 482Q241 482 210 448T178 350V200Q178 136 209 102T298 68Z" />
<glyph unicode="r" horiz-adv-x="600" d="M111 0V550H199V445H220L191 380Q191 469 229 514T344 560Q431 560 482 506T534 358V325H444V350Q444 415 413 449T323 484Q266 484 234 449T201 350V0H111Z" />
<glyph unicode="s" horiz-adv-x="600" d="M283 -8Q227 -8 186 9T120 59T90 135H180Q186 106 212 89T283 72H325Q378 72 404 93T430 151Q430 186 407 206T337 234L263 246Q182 260 143 296T103 403Q103 477 150 517T291 558H329Q408 558 456 521T514 421H424Q418
447 394 462T329 478H291Q240 478 217 459T193 402Q193 368 213 352T276 329L350 317Q439 303 479 265T520 155Q520 79 472 36T325 -8H283Z" />
<glyph unicode="t" horiz-adv-x="600" d="M360 0Q289 0 250 38T210 145V468H55V550H210V705H300V550H520V468H300V145Q300 82 360 82H510V0H360Z" />
<glyph unicode="u" horiz-adv-x="600" d="M299 -10Q204 -10 147 46T90 200V550H180V200Q180 138 212 104T299 69Q355 69 387 103T420 200V550H510V200Q510 103 452 47T299 -10Z" />
<glyph unicode="v" horiz-adv-x="600" d="M239 0L55 550H147L269 180Q280 147 289 117T302 69Q307 86 316 116T335 180L454 550H545L361 0H239Z" />
<glyph unicode="w" horiz-adv-x="600" d="M123 0L35 550H115L170 160Q173 138 176 113T182 70Q184 87 188 112T196 160L257 550H343L404 160Q407 138 411 113T418 70Q420 87 424 112T432 160L489 550H565L473 0H374L315 380Q311 408 306 436T299 480Q297 464 293
436T284 380L222 0H123Z" />
<glyph unicode="x" horiz-adv-x="600" d="M50 0L245 283L62 550H168L277 380Q284 369 290 356T301 335Q304 343 310 356T324 380L434 550H539L356 282L550 0H444L326 180Q319 191 313 205T301 229Q297 220 290 206T274 180L155 0H50Z" />
<glyph unicode="y" horiz-adv-x="600" d="M178 -180L259 34L55 550H155L283 210Q290 193 296 170T306 130Q310 146 316 169T328 210L448 550H545L274 -180H178Z" />
<glyph unicode="z" horiz-adv-x="600" d="M90 0V90L398 468H98V550H499V460L185 82H510V0H90Z" />
<glyph unicode="{" horiz-adv-x="600" d="M470 -110Q411 -110 369 -91T304 -34T285 56L295 220Q298 273 279 296T195 320H85V400H195Q260 400 279 423T295 500L285 664Q282 717 304 754T368 810T470 830H515V750H470Q423 750 398 729T375 664L385 500Q389 435
354 397T255 358V363Q318 363 353 324T385 220L375 56Q373 13 398 -8T470 -30H515V-110H470Z" />
<glyph unicode="|" horiz-adv-x="600" d="M255 -110V830H345V-110H255Z" />
<glyph unicode="}" horiz-adv-x="600" d="M85 -110V-30H130Q177 -30 202 -9T225 56L215 220Q211 285 246 324T345 363V358Q281 358 246 396T215 500L225 664Q227 707 202 728T130 750H85V830H130Q189 830 231 811T296 754T315 664L305 500Q302 447 321 424T405
400H515V320H405Q341 320 322 297T305 220L315 56Q318 4 296 -33T232 -90T130 -110H85Z" />
<glyph unicode="~" horiz-adv-x="600" d="M65 255V325Q65 384 101 419T195 455Q232 455 258 442T302 410T336 371T367 338T403 325Q426 325 438 339T450 380V450H535V380Q535 322 500 286T405 250Q368 250 342 263T298 295T264 334T233 367T197 380Q175 380 163
366T150 325V255H65Z" />
<glyph unicode="&#xa0;" horiz-adv-x="600" />
<glyph unicode="&#xa1;" horiz-adv-x="600" d="M247 -180V-55L268 336H332L353 -55V-180H247ZM290 436Q261 436 243 453T225 497Q225 524 243 540T290 556H310Q339 556 357 541T375 498Q375 470 357 453T310 436H290Z" />
<glyph unicode="&#xa2;" horiz-adv-x="600" d="M280 -140V690H340V-140H280ZM304 -10Q238 -10 189 15T112 87T85 200V350Q85 416 112 463T188 535T304 560Q399 560 457 509T518 370H428Q425 423 393 451T304 480Q245 480 210 447T175 351V200Q175 138 210 104T304
70Q360 70 392 99T428 180H518Q515 92 457 41T304 -10Z" />
<glyph unicode="&#xa3;" horiz-adv-x="600" d="M75 0V100Q99 119 124 145T166 200T184 254Q184 297 174 328T150 386T121 436T96 488T86 555Q86 612 112 653T186 717T300 740Q366 740 414 718T488 653T515 550H420Q420 600 387 630T299 660Q241 660 209 632T177
550Q177 519 187 496T211 450T240 403T265 345T275 263Q275 220 258 184T215 121T165 80H535V0H75ZM75 305V385H435V305H75Z" />
<glyph unicode="&#xa4;" horiz-adv-x="600" d="M495 113L408 200Q386 186 359 179T301 171Q270 171 243 178T192 200L107 115L45 177L128 261Q112 284 104 313T95 373Q95 405 104 433T129 486L43 572L106 635L194 547Q217 561 244 568T301 575Q364 575 412 544L496
628L557 567L474 484Q489 460 497 432T505 373Q505 342 497 314T473 261L558 176L495 113ZM301 240Q338 240 367 257T414 305T431 373Q431 411 414 441T368 488T301 506Q264 506 234 489T187 441T169 373Q169 335 186 305T234 258T301 240Z" />
<glyph unicode="&#xa5;" horiz-adv-x="600" d="M60 270V345H540V270H60ZM60 120V195H540V120H60ZM255 0V273L35 730H128L273 430Q285 405 292 388T301 362Q303 370 310 387T330 430L472 730H565L345 273V0H255Z" />
<glyph unicode="&#xa6;" horiz-adv-x="600" d="M255 450V830H345V450H255ZM255 -110V270H345V-110H255Z" />
<glyph unicode="&#xa7;" horiz-adv-x="600" d="M285 -154Q231 -154 187 -135T114 -81T77 0H172Q181 -33 212 -53T285 -74H315Q372 -74 402 -51T432 12Q432 48 407 71T331 105L239 124Q170 138 128 182T86 285Q86 342 123 383T215 429V436Q188 436 159 449T110
494T90 579Q90 653 142 696T289 740H319Q398 740 452 700T517 595H422Q415 624 387 642T319 660H289Q238 660 210 638T181 578Q181 546 206 523T278 489L368 470Q439 455 480 412T521 308Q521 250 485 210T388 170V163Q417 162 448 146T501 98T523 15Q523 -63 468
-108T315 -154H285ZM330 185Q360 179 382 193T417 235T430 299Q430 334 408 360T351 394L277 409Q247 415 225 402T190 361T177 300Q177 262 198 235T254 200L330 185Z" />
<glyph unicode="&#xa8;" horiz-adv-x="600" d="M411 649Q382 649 365 666T347 712Q347 742 364 759T411 777Q440 777 457 760T475 712Q475 683 458 666T411 649ZM189 649Q160 649 143 666T125 712Q125 742 142 759T189 777Q218 777 235 760T253 712Q253 683 236
666T189 649Z" />
<glyph unicode="&#xa9;" horiz-adv-x="600" d="M300 110Q224 110 167 140T77 224T45 350V500Q45 572 77 626T166 710T300 740Q377 740 434 710T523 626T555 500V350Q555 278 523 224T434 140T300 110ZM300 160Q360 160 405 183T475 250T500 350V500Q500 557 475
599T405 666T300 690Q240 690 195 666T125 600T100 500V350Q100 293 125 250T195 184T300 160ZM305 245Q249 245 215 276T180 360V490Q180 542 214 573T305 605Q361 605 395 574T429 490H364Q364 517 348 533T305 550Q278 550 262 534T245 490V360Q245 333 261
317T305 300Q331 300 347 316T364 360H429Q429 308 395 277T305 245Z" />
<glyph unicode="&#xaa;" horiz-adv-x="600" d="M373 455V510H370V650Q370 673 353 686T305 700Q279 700 261 689T240 660H190Q195 698 225 719T305 740Q358 740 389 716T420 650V455H373ZM274 450Q229 450 202 473T175 536Q175 575 203 598T280 621H381V581H280Q254
581 240 569T225 536Q225 514 242 501T287 488Q326 488 348 506T370 555H381V510H370Q360 482 335 466T274 450Z" />
<glyph unicode="&#xab;" horiz-adv-x="600" d="M465 40L263 280L464 520H570L364 282L570 40H465ZM232 40L30 280L231 520H337L131 282L337 40H232Z" />
<glyph unicode="&#xac;" horiz-adv-x="600" d="M445 205V335H70V415H530V205H445Z" />
<glyph unicode="&#xad;" horiz-adv-x="600" d="M140 290V370H460V290H140Z" />
<glyph unicode="&#xae;" horiz-adv-x="600" d="M300 110Q224 110 167 140T77 224T45 350V500Q45 572 77 626T166 710T300 740Q377 740 434 710T523 626T555 500V350Q555 278 523 224T434 140T300 110ZM363 250L299 403H360L427 250H363ZM300 160Q360 160 405 183T475
250T500 350V500Q500 557 475 599T405 666T300 690Q240 690 195 666T125 600T100 500V350Q100 293 125 250T195 184T300 160ZM190 250V600H304Q358 600 389 572T421 495Q421 447 390 419T304 390H250V250H190ZM250 440H304Q330 440 345 454T360 495Q360 521 345
535T304 550H250V440Z" />
<glyph unicode="&#xaf;" horiz-adv-x="600" d="M140 670V745H460V670H140Z" />
<glyph unicode="&#xb0;" horiz-adv-x="600" d="M300 450Q233 450 192 490T150 595Q150 660 191 700T300 740Q368 740 409 700T450 595Q450 530 409 490T300 450ZM299 501Q340 501 365 527T390 595Q390 638 365 664T299 690Q259 690 235 664T210 595Q210 553 234
527T299 501Z" />
<glyph unicode="&#xb1;" horiz-adv-x="600" d="M70 0V70H256V295H65V375H256V570H344V375H535V295H344V70H530V0H70Z" />
<glyph unicode="&#xb2;" horiz-adv-x="600" d="M166 405V492L328 613Q350 629 362 651T375 696Q375 734 354 755T298 777Q263 777 242 756T221 696H151Q154 762 194 801T298 840Q366 840 405 802T444 698Q444 663 423 627T365 564L237 469H455V405H166Z" />
<glyph unicode="&#xb3;" horiz-adv-x="600" d="M284 395Q216 395 176 433T136 535H205Q205 500 226 479T284 458Q319 458 339 479T360 535Q360 570 340 590T285 611H255V678L348 767H165V831H405V752L288 641V669Q354 669 393 633T432 535Q432 471 392 433T284 395Z" />
<glyph unicode="&#xb4;" horiz-adv-x="600" d="M212 645L318 785H415L304 645H212Z" />
<glyph unicode="&#xb5;" horiz-adv-x="600" d="M90 -180V550H180V194Q180 134 208 102T299 69Q362 69 391 101T420 194V550H510V194Q510 98 457 44T309 -10Q262 -10 230 2T179 33T155 67H151Q152 67 156 54T163 22T168 -13L179 -180H90Z" />
<glyph unicode="&#xb6;" horiz-adv-x="600" d="M255 -180V310Q170 310 118 357T65 480V560Q65 637 117 683T255 730H335V-180H255ZM425 -180V730H505V-180H425Z" />
<glyph unicode="&#xb7;" horiz-adv-x="600" d="M300 260Q262 260 240 282T217 341Q217 380 239 403T300 426Q338 426 360 403T383 341Q383 304 361 282T300 260Z" />
<glyph unicode="&#xb8;" horiz-adv-x="600" d="M205 -203V-148H275Q297 -148 310 -137T324 -112Q324 -95 297 -82T219 -69L254 26H311L290 -35Q316 -38 344 -48T391 -76T410 -120Q410 -154 377 -178T290 -203H205Z" />
<glyph unicode="&#xb9;" horiz-adv-x="600" d="M155 405V469H286V767L164 680V759L261 830H356V469H460V405H155Z" />
<glyph unicode="&#xba;" horiz-adv-x="600" d="M300 445Q248 445 217 474T185 550V630Q185 677 216 706T300 735Q352 735 383 706T415 630V550Q415 503 384 474T300 445ZM300 485Q329 485 347 503T365 550V630Q365 659 347 677T300 695Q271 695 253 677T235 630V550Q235
521 253 503T300 485Z" />
<glyph unicode="&#xbb;" horiz-adv-x="600" d="M264 40L466 281L263 520H368L570 280L369 40H264ZM31 40L233 281L30 520H135L337 280L136 40H31Z" />
<glyph unicode="&#xbc;" horiz-adv-x="600" d="M30 405V455H148V691Q144 684 135 674T115 653L53 599V669L123 730H208V455H305V405H30ZM480 0V70H305V150L431 325H500L365 136V120H480V209H540V0H480ZM90 0L447 730H510L153 0H90Z" />
<glyph unicode="&#xbd;" horiz-adv-x="600" d="M315 0V64L435 133Q470 153 487 173T505 216Q505 245 487 262T440 280Q411 280 393 263T375 216H315Q317 268 351 299T440 330Q496 330 530 299T565 218Q565 187 543 157T479 104L386 52V42Q397 44 418 47T461 50H570V0H315ZM30
405V455H148V691Q144 684 135 674T115 653L53 599V669L123 730H208V455H315V405H30ZM90 0L447 730H510L153 0H90Z" />
<glyph unicode="&#xbe;" horiz-adv-x="600" d="M480 0V70H305V150L431 325H500L365 136V120H480V209H540V0H480ZM154 400Q96 400 61 429T26 505H86Q86 480 104 465T154 450Q184 450 202 465T221 505Q221 530 203 545T155 560H125V617L206 680H50V730H265V675L158
592V610Q213 610 247 581T281 505Q281 458 246 429T154 400ZM90 0L447 730H510L153 0H90Z" />
<glyph unicode="&#xbf;" horiz-adv-x="600" d="M340 -170Q269 -170 218 -145T138 -72T110 40Q110 97 133 141T199 211T299 240V345H389V165H339Q275 165 238 132T200 40Q200 -18 237 -51T340 -85H465V-170H340ZM335 435Q306 435 288 452T270 496Q270 523 288 539T335
555H355Q384 555 402 540T420 497Q420 469 402 452T355 435H335Z" />
<glyph unicode="&#xc0;" horiz-adv-x="600" d="M50 0L240 730H361L550 0H459L411 194H190L142 0H50ZM208 270H392L336 495Q320 559 311 602T300 658Q298 645 289 602T264 496L208 270ZM523 810L408 950H508L618 810H523Z" />
<glyph unicode="&#xc1;" horiz-adv-x="600" d="M50 0L240 730H361L550 0H459L411 194H190L142 0H50ZM208 270H392L336 495Q320 559 311 602T300 658Q298 645 289 602T264 496L208 270ZM242 810L348 950H445L334 810H242Z" />
<glyph unicode="&#xc2;" horiz-adv-x="600" d="M50 0L240 730H361L550 0H459L411 194H190L142 0H50ZM208 270H392L336 495Q320 559 311 602T300 658Q298 645 289 602T264 496L208 270ZM119 810L258 950H341L481 810H382L300 888L220 810H119Z" />
<glyph unicode="&#xc3;" horiz-adv-x="600" d="M50 0L240 730H361L550 0H459L411 194H190L142 0H50ZM208 270H392L336 495Q320 559 311 602T300 658Q298 645 289 602T264 496L208 270ZM370 815Q340 815 321 825T289 850T264 874T235 885Q222 885 214 877T205 850V820H140V850Q140
895 165 920T230 945Q260 945 279 935T311 910T336 886T365 875Q379 875 387 883T395 910V940H460V910Q460 865 436 840T370 815Z" />
<glyph unicode="&#xc4;" horiz-adv-x="600" d="M50 0L240 730H361L550 0H459L411 194H190L142 0H50ZM208 270H392L336 495Q320 559 311 602T300 658Q298 645 289 602T264 496L208 270ZM411 817Q382 817 365 834T347 880Q347 910 364 927T411 945Q440 945 457 928T475
880Q475 851 458 834T411 817ZM189 817Q160 817 143 834T125 880Q125 910 142 927T189 945Q218 945 235 928T253 880Q253 851 236 834T189 817Z" />
<glyph unicode="&#xc5;" horiz-adv-x="600" d="M50 0L240 730H361L550 0H459L411 194H190L142 0H50ZM208 270H392L336 495Q320 559 311 602T300 658Q298 645 289 602T264 496L208 270ZM300 766Q246 766 213 797T180 880Q180 931 213 962T300 994Q354 994 387 963T420
880Q420 829 387 798T300 766ZM300 819Q327 819 343 835T360 880Q360 908 344 925T300 942Q273 942 257 925T240 880Q240 852 256 836T300 819Z" />
<glyph unicode="&#xc6;" horiz-adv-x="600" d="M30 0L175 730H570V648H388V420H545V338H388V82H570V0H302V203H161L121 0H30ZM175 278H302V648H246L175 278Z" />
<glyph unicode="&#xc7;" horiz-adv-x="600" d="M210 -203V-148H280Q302 -148 315 -137T329 -112Q329 -95 302 -82T224 -69L259 26H316L295 -35Q321 -38 349 -48T396 -76T415 -120Q415 -154 382 -178T295 -203H210ZM304 -10Q238 -10 190 15T115 87T88 200V530Q88
596 114 643T189 715T304 740Q370 740 418 715T492 642T518 530H428Q428 592 396 625T304 659Q245 659 212 626T178 531V200Q178 138 211 105T304 71Q363 71 395 104T428 200H518Q518 136 492 89T418 16T304 -10Z" />
<glyph unicode="&#xc8;" horiz-adv-x="600" d="M100 0V730H520V648H189V422H485V341H189V82H520V0H100ZM543 810L428 950H528L638 810H543Z" />
<glyph unicode="&#xc9;" horiz-adv-x="600" d="M100 0V730H520V648H189V422H485V341H189V82H520V0H100ZM262 810L368 950H465L354 810H262Z" />
<glyph unicode="&#xca;" horiz-adv-x="600" d="M100 0V730H520V648H189V422H485V341H189V82H520V0H100ZM139 810L278 950H361L501 810H402L320 888L240 810H139Z" />
<glyph unicode="&#xcb;" horiz-adv-x="600" d="M100 0V730H520V648H189V422H485V341H189V82H520V0H100ZM431 817Q402 817 385 834T367 880Q367 910 384 927T431 945Q460 945 477 928T495 880Q495 851 478 834T431 817ZM209 817Q180 817 163 834T145 880Q145 910
162 927T209 945Q238 945 255 928T273 880Q273 851 256 834T209 817Z" />
<glyph unicode="&#xcc;" horiz-adv-x="600" d="M105 0V82H254V648H105V730H495V648H346V82H495V0H105ZM523 810L408 950H508L618 810H523Z" />
<glyph unicode="&#xcd;" horiz-adv-x="600" d="M105 0V82H254V648H105V730H495V648H346V82H495V0H105ZM242 810L348 950H445L334 810H242Z" />
<glyph unicode="&#xce;" horiz-adv-x="600" d="M105 0V82H254V648H105V730H495V648H346V82H495V0H105ZM119 810L258 950H341L481 810H382L300 888L220 810H119Z" />
<glyph unicode="&#xcf;" horiz-adv-x="600" d="M105 0V82H254V648H105V730H495V648H346V82H495V0H105ZM411 817Q382 817 365 834T347 880Q347 910 364 927T411 945Q440 945 457 928T475 880Q475 851 458 834T411 817ZM189 817Q160 817 143 834T125 880Q125 910
142 927T189 945Q218 945 235 928T253 880Q253 851 236 834T189 817Z" />
<glyph unicode="&#xd0;" horiz-adv-x="600" d="M10 335V410H290V335H10ZM92 0V730H281Q352 730 403 703T483 627T512 511V220Q512 153 484 104T404 27T281 0H92ZM182 80H281Q347 80 384 117T422 220V511Q422 576 385 613T281 650H182V80Z" />
<glyph unicode="&#xd1;" horiz-adv-x="600" d="M90 0V730H210L433 105Q431 130 429 166T425 243T423 320V730H510V0H390L168 625Q170 601 172 565T175 488T177 410V0H90ZM370 815Q340 815 321 825T289 850T264 874T235 885Q222 885 214 877T205 850V820H140V850Q140
895 165 920T230 945Q260 945 279 935T311 910T336 886T365 875Q379 875 387 883T395 910V940H460V910Q460 865 436 840T370 815Z" />
<glyph unicode="&#xd2;" horiz-adv-x="600" d="M300 -10Q234 -10 187 15T114 87T88 200V530Q88 596 113 643T186 715T300 740Q366 740 413 715T486 643T512 531V200Q512 135 487 88T414 15T300 -10ZM300 71Q359 71 390 104T422 200V530Q422 592 391 625T300 659Q242
659 210 626T178 530V200Q178 138 210 105T300 71ZM523 810L408 950H508L618 810H523Z" />
<glyph unicode="&#xd3;" horiz-adv-x="600" d="M300 -10Q234 -10 187 15T114 87T88 200V530Q88 596 113 643T186 715T300 740Q366 740 413 715T486 643T512 531V200Q512 135 487 88T414 15T300 -10ZM300 71Q359 71 390 104T422 200V530Q422 592 391 625T300 659Q242
659 210 626T178 530V200Q178 138 210 105T300 71ZM242 810L348 950H445L334 810H242Z" />
<glyph unicode="&#xd4;" horiz-adv-x="600" d="M300 -10Q234 -10 187 15T114 87T88 200V530Q88 596 113 643T186 715T300 740Q366 740 413 715T486 643T512 531V200Q512 135 487 88T414 15T300 -10ZM300 71Q359 71 390 104T422 200V530Q422 592 391 625T300 659Q242
659 210 626T178 530V200Q178 138 210 105T300 71ZM119 810L258 950H341L481 810H382L300 888L220 810H119Z" />
<glyph unicode="&#xd5;" horiz-adv-x="600" d="M300 -10Q234 -10 187 15T114 87T88 200V530Q88 596 113 643T186 715T300 740Q366 740 413 715T486 643T512 531V200Q512 135 487 88T414 15T300 -10ZM300 71Q359 71 390 104T422 200V530Q422 592 391 625T300 659Q242
659 210 626T178 530V200Q178 138 210 105T300 71ZM370 815Q340 815 321 825T289 850T264 874T235 885Q222 885 214 877T205 850V820H140V850Q140 895 165 920T230 945Q260 945 279 935T311 910T336 886T365 875Q379 875 387 883T395 910V940H460V910Q460 865 436
840T370 815Z" />
<glyph unicode="&#xd6;" horiz-adv-x="600" d="M300 -10Q234 -10 187 15T114 87T88 200V530Q88 596 113 643T186 715T300 740Q366 740 413 715T486 643T512 531V200Q512 135 487 88T414 15T300 -10ZM300 71Q359 71 390 104T422 200V530Q422 592 391 625T300 659Q242
659 210 626T178 530V200Q178 138 210 105T300 71ZM411 817Q382 817 365 834T347 880Q347 910 364 927T411 945Q440 945 457 928T475 880Q475 851 458 834T411 817ZM189 817Q160 817 143 834T125 880Q125 910 142 927T189 945Q218 945 235 928T253 880Q253 851
236 834T189 817Z" />
<glyph unicode="&#xd7;" horiz-adv-x="600" d="M156 136L105 188L246 329L105 471L156 522L298 381L443 526L494 474L349 329L491 188L439 136L298 278L156 136Z" />
<glyph unicode="&#xd8;" horiz-adv-x="600" d="M35 -40L481 750H565L119 -40H35ZM300 -10Q234 -10 187 15T114 87T88 200V530Q88 596 113 643T186 715T300 740Q366 740 413 715T486 643T512 531V200Q512 135 487 88T414 15T300 -10ZM300 71Q359 71 390 104T422
200V530Q422 592 391 625T300 659Q242 659 210 626T178 530V200Q178 138 210 105T300 71Z" />
<glyph unicode="&#xd9;" horiz-adv-x="600" d="M300 -10Q198 -10 144 46T90 200V730H180V200Q180 140 209 105T300 70Q360 70 390 105T420 200V730H510V200Q510 102 457 46T300 -10ZM523 810L408 950H508L618 810H523Z" />
<glyph unicode="&#xda;" horiz-adv-x="600" d="M300 -10Q198 -10 144 46T90 200V730H180V200Q180 140 209 105T300 70Q360 70 390 105T420 200V730H510V200Q510 102 457 46T300 -10ZM242 810L348 950H445L334 810H242Z" />
<glyph unicode="&#xdb;" horiz-adv-x="600" d="M300 -10Q198 -10 144 46T90 200V730H180V200Q180 140 209 105T300 70Q360 70 390 105T420 200V730H510V200Q510 102 457 46T300 -10ZM119 810L258 950H341L481 810H382L300 888L220 810H119Z" />
<glyph unicode="&#xdc;" horiz-adv-x="600" d="M300 -10Q198 -10 144 46T90 200V730H180V200Q180 140 209 105T300 70Q360 70 390 105T420 200V730H510V200Q510 102 457 46T300 -10ZM411 817Q382 817 365 834T347 880Q347 910 364 927T411 945Q440 945 457 928T475
880Q475 851 458 834T411 817ZM189 817Q160 817 143 834T125 880Q125 910 142 927T189 945Q218 945 235 928T253 880Q253 851 236 834T189 817Z" />
<glyph unicode="&#xdd;" horiz-adv-x="600" d="M255 0V273L35 730H128L273 430Q285 405 292 388T301 362Q303 370 310 387T330 430L472 730H565L345 273V0H255ZM242 810L348 950H445L334 810H242Z" />
<glyph unicode="&#xde;" horiz-adv-x="600" d="M90 0V730H180V580H333Q399 580 447 555T523 485T550 380Q550 289 491 235T333 180H180V0H90ZM180 260H333Q391 260 424 292T457 380Q457 436 424 468T333 500H180V260Z" />
<glyph unicode="&#xdf;" horiz-adv-x="600" d="M92 0V534Q92 596 118 642T191 714T303 740Q367 740 415 719T489 656T516 554Q516 504 495 465T434 404T340 383V398Q398 399 440 376T506 310T530 208Q530 147 503 100T428 27T315 0H249V82H305Q365 82 400 117T435
211Q435 269 401 302T305 335H261V413H303Q359 413 390 448T422 536Q422 594 390 626T303 658Q248 658 215 625T182 534V0H92Z" />
<glyph unicode="&#xe0;" horiz-adv-x="600" d="M252 -10Q165 -10 115 34T65 155Q65 232 115 276T250 320H420V375Q420 426 390 453T303 481Q254 481 221 461T183 405H93Q102 476 160 518T305 560Q400 560 455 511T510 378V0H422V105H407L422 120Q422 60 376 25T252
-10ZM274 61Q338 61 379 93T420 175V253H252Q207 253 181 228T155 160Q155 114 186 88T274 61ZM528 645L413 785H513L623 645H528Z" />
<glyph unicode="&#xe1;" horiz-adv-x="600" d="M252 -10Q165 -10 115 34T65 155Q65 232 115 276T250 320H420V375Q420 426 390 453T303 481Q254 481 221 461T183 405H93Q102 476 160 518T305 560Q400 560 455 511T510 378V0H422V105H407L422 120Q422 60 376 25T252
-10ZM274 61Q338 61 379 93T420 175V253H252Q207 253 181 228T155 160Q155 114 186 88T274 61ZM247 645L353 785H450L339 645H247Z" />
<glyph unicode="&#xe2;" horiz-adv-x="600" d="M252 -10Q165 -10 115 34T65 155Q65 232 115 276T250 320H420V375Q420 426 390 453T303 481Q254 481 221 461T183 405H93Q102 476 160 518T305 560Q400 560 455 511T510 378V0H422V105H407L422 120Q422 60 376 25T252
-10ZM274 61Q338 61 379 93T420 175V253H252Q207 253 181 228T155 160Q155 114 186 88T274 61ZM124 645L263 785H346L486 645H387L305 723L225 645H124Z" />
<glyph unicode="&#xe3;" horiz-adv-x="600" d="M252 -10Q165 -10 115 34T65 155Q65 232 115 276T250 320H420V375Q420 426 390 453T303 481Q254 481 221 461T183 405H93Q102 476 160 518T305 560Q400 560 455 511T510 378V0H422V105H407L422 120Q422 60 376 25T252
-10ZM274 61Q338 61 379 93T420 175V253H252Q207 253 181 228T155 160Q155 114 186 88T274 61ZM375 650Q345 650 326 660T294 685T269 709T240 720Q227 720 219 712T210 685V655H145V685Q145 730 170 755T235 780Q265 780 284 770T316 745T341 721T370 710Q384
710 392 718T400 745V775H465V745Q465 700 441 675T375 650Z" />
<glyph unicode="&#xe4;" horiz-adv-x="600" d="M252 -10Q165 -10 115 34T65 155Q65 232 115 276T250 320H420V375Q420 426 390 453T303 481Q254 481 221 461T183 405H93Q102 476 160 518T305 560Q400 560 455 511T510 378V0H422V105H407L422 120Q422 60 376 25T252
-10ZM274 61Q338 61 379 93T420 175V253H252Q207 253 181 228T155 160Q155 114 186 88T274 61ZM416 649Q387 649 370 666T352 712Q352 742 369 759T416 777Q445 777 462 760T480 712Q480 683 463 666T416 649ZM194 649Q165 649 148 666T130 712Q130 742 147 759T194
777Q223 777 240 760T258 712Q258 683 241 666T194 649Z" />
<glyph unicode="&#xe5;" horiz-adv-x="600" d="M252 -10Q165 -10 115 34T65 155Q65 232 115 276T250 320H420V375Q420 426 390 453T303 481Q254 481 221 461T183 405H93Q102 476 160 518T305 560Q400 560 455 511T510 378V0H422V105H407L422 120Q422 60 376 25T252
-10ZM274 61Q338 61 379 93T420 175V253H252Q207 253 181 228T155 160Q155 114 186 88T274 61ZM305 608Q251 608 218 639T185 722Q185 773 218 804T305 836Q359 836 392 805T425 722Q425 671 392 640T305 608ZM305 661Q332 661 348 677T365 722Q365 750 349 767T305
784Q278 784 262 767T245 722Q245 694 261 678T305 661Z" />
<glyph unicode="&#xe6;" horiz-adv-x="600" d="M170 -10Q108 -10 72 28T35 130V190Q35 252 76 288T188 325H262V399Q262 443 246 463T195 483Q167 483 150 466T132 420H47Q47 483 83 521T180 560Q219 560 245 547T284 516T301 480H305Q308 497 321 515T358 547T420
560Q488 560 526 517T565 400V255H343V150Q343 113 361 90T410 67Q442 67 461 84T480 130H565Q565 67 525 29T420 -10Q383 -10 358 3T321 34T305 70H301Q298 53 283 35T241 3T170 -10ZM190 67Q222 67 242 90T262 150V255H190Q159 255 142 238T125 190V130Q125 101
142 84T190 67ZM343 325H480V400Q480 438 462 460T410 483Q379 483 361 461T343 400V325Z" />
<glyph unicode="&#xe7;" horiz-adv-x="600" d="M209 -203V-148H279Q301 -148 314 -137T328 -112Q328 -95 301 -82T223 -69L258 26H315L294 -35Q320 -38 348 -48T395 -76T414 -120Q414 -154 381 -178T294 -203H209ZM304 -10Q238 -10 189 15T112 87T85 200V350Q85
416 112 463T188 535T304 560Q399 560 457 509T518 370H428Q425 423 393 451T304 480Q245 480 210 447T175 351V200Q175 138 210 104T304 70Q360 70 392 99T428 180H518Q515 92 457 41T304 -10Z" />
<glyph unicode="&#xe8;" horiz-adv-x="600" d="M300 -10Q235 -10 187 16T112 89T85 200V350Q85 414 111 461T186 534T300 560Q365 560 413 534T488 461T515 350V253H173V200Q173 135 206 101T300 66Q352 66 384 84T423 140H513Q504 71 446 31T300 -10ZM427 313V350Q427
415 395 450T300 485Q239 485 206 450T173 350V321H434L427 313ZM523 645L408 785H508L618 645H523Z" />
<glyph unicode="&#xe9;" horiz-adv-x="600" d="M300 -10Q235 -10 187 16T112 89T85 200V350Q85 414 111 461T186 534T300 560Q365 560 413 534T488 461T515 350V253H173V200Q173 135 206 101T300 66Q352 66 384 84T423 140H513Q504 71 446 31T300 -10ZM427 313V350Q427
415 395 450T300 485Q239 485 206 450T173 350V321H434L427 313ZM242 645L348 785H445L334 645H242Z" />
<glyph unicode="&#xea;" horiz-adv-x="600" d="M300 -10Q235 -10 187 16T112 89T85 200V350Q85 414 111 461T186 534T300 560Q365 560 413 534T488 461T515 350V253H173V200Q173 135 206 101T300 66Q352 66 384 84T423 140H513Q504 71 446 31T300 -10ZM427 313V350Q427
415 395 450T300 485Q239 485 206 450T173 350V321H434L427 313ZM119 645L258 785H341L481 645H382L300 723L220 645H119Z" />
<glyph unicode="&#xeb;" horiz-adv-x="600" d="M300 -10Q235 -10 187 16T112 89T85 200V350Q85 414 111 461T186 534T300 560Q365 560 413 534T488 461T515 350V253H173V200Q173 135 206 101T300 66Q352 66 384 84T423 140H513Q504 71 446 31T300 -10ZM427 313V350Q427
415 395 450T300 485Q239 485 206 450T173 350V321H434L427 313ZM411 649Q382 649 365 666T347 712Q347 742 364 759T411 777Q440 777 457 760T475 712Q475 683 458 666T411 649ZM189 649Q160 649 143 666T125 712Q125 742 142 759T189 777Q218 777 235 760T253
712Q253 683 236 666T189 649Z" />
<glyph unicode="&#xec;" horiz-adv-x="600" d="M85 0V82H280V468H110V550H370V82H555V0H85ZM538 645L423 785H523L633 645H538Z" />
<glyph unicode="&#xed;" horiz-adv-x="600" d="M85 0V82H280V468H110V550H370V82H555V0H85ZM257 645L363 785H460L349 645H257Z" />
<glyph unicode="&#xee;" horiz-adv-x="600" d="M85 0V82H280V468H110V550H370V82H555V0H85ZM134 645L273 785H356L496 645H397L315 723L235 645H134Z" />
<glyph unicode="&#xef;" horiz-adv-x="600" d="M85 0V82H280V468H110V550H370V82H555V0H85ZM426 649Q397 649 380 666T362 712Q362 742 379 759T426 777Q455 777 472 760T490 712Q490 683 473 666T426 649ZM204 649Q175 649 158 666T140 712Q140 742 157 759T204
777Q233 777 250 760T268 712Q268 683 251 666T204 649Z" />
<glyph unicode="&#xf0;" horiz-adv-x="600" d="M299 -10Q231 -10 179 18T99 97T70 215Q70 282 96 331T170 408T281 436Q310 436 333 427T372 405T395 380H409Q405 390 389 416T345 480L280 571L117 495V575L237 631L165 730H269L313 666L461 735V655L355 606L433
493Q477 429 503 358T530 223Q530 153 501 101T421 19T299 -10ZM299 70Q363 70 401 110T440 215Q440 259 423 291T374 342T299 360Q237 360 199 320T160 215Q160 150 198 110T299 70Z" />
<glyph unicode="&#xf1;" horiz-adv-x="600" d="M92 0V550H182V445H201L182 424Q182 489 221 524T329 560Q412 560 461 509T510 370V0H420V360Q420 419 389 450T303 482Q247 482 215 448T182 350V0H92ZM375 650Q345 650 326 660T294 685T269 709T240 720Q227 720
219 712T210 685V655H145V685Q145 730 170 755T235 780Q265 780 284 770T316 745T341 721T370 710Q384 710 392 718T400 745V775H465V745Q465 700 441 675T375 650Z" />
<glyph unicode="&#xf2;" horiz-adv-x="600" d="M300 -8Q234 -8 186 17T112 89T85 202V348Q85 414 111 461T186 533T300 558Q366 558 414 533T488 461T515 349V202Q515 137 489 90T414 17T300 -8ZM300 72Q359 72 392 105T425 202V348Q425 412 392 445T300 478Q242
478 209 445T175 348V202Q175 138 208 105T300 72ZM523 645L408 785H508L618 645H523Z" />
<glyph unicode="&#xf3;" horiz-adv-x="600" d="M300 -8Q234 -8 186 17T112 89T85 202V348Q85 414 111 461T186 533T300 558Q366 558 414 533T488 461T515 349V202Q515 137 489 90T414 17T300 -8ZM300 72Q359 72 392 105T425 202V348Q425 412 392 445T300 478Q242
478 209 445T175 348V202Q175 138 208 105T300 72ZM242 645L348 785H445L334 645H242Z" />
<glyph unicode="&#xf4;" horiz-adv-x="600" d="M300 -8Q234 -8 186 17T112 89T85 202V348Q85 414 111 461T186 533T300 558Q366 558 414 533T488 461T515 349V202Q515 137 489 90T414 17T300 -8ZM300 72Q359 72 392 105T425 202V348Q425 412 392 445T300 478Q242
478 209 445T175 348V202Q175 138 208 105T300 72ZM119 645L258 785H341L481 645H382L300 723L220 645H119Z" />
<glyph unicode="&#xf5;" horiz-adv-x="600" d="M300 -8Q234 -8 186 17T112 89T85 202V348Q85 414 111 461T186 533T300 558Q366 558 414 533T488 461T515 349V202Q515 137 489 90T414 17T300 -8ZM300 72Q359 72 392 105T425 202V348Q425 412 392 445T300 478Q242
478 209 445T175 348V202Q175 138 208 105T300 72ZM370 650Q340 650 321 660T289 685T264 709T235 720Q222 720 214 712T205 685V655H140V685Q140 730 165 755T230 780Q260 780 279 770T311 745T336 721T365 710Q379 710 387 718T395 745V775H460V745Q460 700 436
675T370 650Z" />
<glyph unicode="&#xf6;" horiz-adv-x="600" d="M300 -8Q234 -8 186 17T112 89T85 202V348Q85 414 111 461T186 533T300 558Q366 558 414 533T488 461T515 349V202Q515 137 489 90T414 17T300 -8ZM300 72Q359 72 392 105T425 202V348Q425 412 392 445T300 478Q242
478 209 445T175 348V202Q175 138 208 105T300 72ZM411 649Q382 649 365 666T347 712Q347 742 364 759T411 777Q440 777 457 760T475 712Q475 683 458 666T411 649ZM189 649Q160 649 143 666T125 712Q125 742 142 759T189 777Q218 777 235 760T253 712Q253 683
236 666T189 649Z" />
<glyph unicode="&#xf7;" horiz-adv-x="600" d="M100 295V370H500V295H100ZM290 85Q261 85 243 100T225 144Q225 171 243 188T290 205H310Q339 205 357 188T375 144Q375 117 357 101T310 85H290ZM290 460Q261 460 243 475T225 519Q225 546 243 563T290 580H310Q339
580 357 563T375 519Q375 492 357 476T310 460H290Z" />
<glyph unicode="&#xf8;" horiz-adv-x="600" d="M35 -30L474 590H565L125 -30H35ZM300 -10Q234 -10 187 15T114 87T88 200V350Q88 416 113 463T186 535T300 560Q366 560 413 535T486 463T512 351V200Q512 135 487 88T414 15T300 -10ZM300 70Q360 70 393 104T427
200V350Q427 412 394 446T300 480Q240 480 207 446T173 350V200Q173 139 206 105T300 70Z" />
<glyph unicode="&#xf9;" horiz-adv-x="600" d="M299 -10Q204 -10 147 46T90 200V550H180V200Q180 138 212 104T299 69Q355 69 387 103T420 200V550H510V200Q510 103 452 47T299 -10ZM523 645L408 785H508L618 645H523Z" />
<glyph unicode="&#xfa;" horiz-adv-x="600" d="M299 -10Q204 -10 147 46T90 200V550H180V200Q180 138 212 104T299 69Q355 69 387 103T420 200V550H510V200Q510 103 452 47T299 -10ZM242 645L348 785H445L334 645H242Z" />
<glyph unicode="&#xfb;" horiz-adv-x="600" d="M299 -10Q204 -10 147 46T90 200V550H180V200Q180 138 212 104T299 69Q355 69 387 103T420 200V550H510V200Q510 103 452 47T299 -10ZM119 645L258 785H341L481 645H382L300 723L220 645H119Z" />
<glyph unicode="&#xfc;" horiz-adv-x="600" d="M299 -10Q204 -10 147 46T90 200V550H180V200Q180 138 212 104T299 69Q355 69 387 103T420 200V550H510V200Q510 103 452 47T299 -10ZM411 649Q382 649 365 666T347 712Q347 742 364 759T411 777Q440 777 457 760T475
712Q475 683 458 666T411 649ZM189 649Q160 649 143 666T125 712Q125 742 142 759T189 777Q218 777 235 760T253 712Q253 683 236 666T189 649Z" />
<glyph unicode="&#xfd;" horiz-adv-x="600" d="M178 -180L259 34L55 550H155L283 210Q290 193 296 170T306 130Q310 146 316 169T328 210L448 550H545L274 -180H178ZM242 645L348 785H445L334 645H242Z" />
<glyph unicode="&#xfe;" horiz-adv-x="600" d="M87 -170V59H177V-170H87ZM327 -10Q259 -10 218 26T177 126L195 105H177V0H87V730H177V570L175 445H195L177 424Q177 486 218 523T327 560Q410 560 460 505T510 355V194Q510 100 460 45T327 -10ZM297 68Q354 68 387
102T420 200V350Q420 414 387 448T297 482Q242 482 210 447T177 350V200Q177 138 209 103T297 68Z" />
<glyph unicode="&#xff;" horiz-adv-x="600" d="M178 -180L259 34L55 550H155L283 210Q290 193 296 170T306 130Q310 146 316 169T328 210L448 550H545L274 -180H178ZM411 649Q382 649 365 666T347 712Q347 742 364 759T411 777Q440 777 457 760T475 712Q475 683
458 666T411 649ZM189 649Q160 649 143 666T125 712Q125 742 142 759T189 777Q218 777 235 760T253 712Q253 683 236 666T189 649Z" />
<glyph unicode="&#x2013;" horiz-adv-x="600" d="M80 290V370H520V290H80Z" />
<glyph unicode="&#x2014;" horiz-adv-x="600" d="M0 290V370H600V290H0Z" />
<glyph unicode="&#x2018;" horiz-adv-x="600" d="M440 775L360 464H230L360 775H440Z" />
<glyph unicode="&#x2019;" horiz-adv-x="600" d="M160 465L240 776H370L240 465H160Z" />
<glyph unicode="&#x201a;" horiz-adv-x="600" d="M165 -160L245 151H375L245 -160H165Z" />
<glyph unicode="&#x201c;" horiz-adv-x="600" d="M305 465L435 776H515L435 465H305ZM75 465L205 776H285L205 465H75Z" />
<glyph unicode="&#x201d;" horiz-adv-x="600" d="M315 465L395 776H525L395 465H315ZM85 465L165 776H295L165 465H85Z" />
<glyph unicode="&#x201e;" horiz-adv-x="600" d="M315 -160L395 151H525L395 -160H315ZM85 -160L165 151H295L165 -160H85Z" />
<glyph unicode="&#x2022;" horiz-adv-x="600" d="M300 245Q248 245 214 279T180 365Q180 418 214 451T300 485Q353 485 386 452T420 365Q420 313 387 279T300 245Z" />
<glyph unicode="&#x2039;" horiz-adv-x="600" d="M349 40L147 280L349 520H451L247 282L454 40H349Z" />
<glyph unicode="&#x203a;" horiz-adv-x="600" d="M150 40L354 278L147 520H252L454 280L252 40H150Z" />
</font>
</defs>
</svg>
