<?xml version="1.0" standalone="no"?>
<!DOCTYPE svg PUBLIC "-//W3C//DTD SVG 1.1//EN" "http://www.w3.org/Graphics/SVG/1.1/DTD/svg11.dtd">
<svg xmlns="http://www.w3.org/2000/svg">
<defs >
<font id="JetBrainsMono" horiz-adv-x="602" ><font-face
    font-family="JetBrains Mono ExtraBold"
    units-per-em="1000"
    panose-1="2 0 0 9 0 0 0 0 0 0"
    ascent="1020"
    descent="-300"
    alphabetic="0" />
<glyph unicode=" " horiz-adv-x="600" />
<glyph unicode="!" horiz-adv-x="600" d="M244 245L221 580V730H379V580L356 245H244ZM285 -5Q251 -5 231 14T210 65Q210 97 230 116T285 135H315Q349 135 369 116T390 65Q390 33 370 14T314 -5H285Z" />
<glyph unicode="&quot;" horiz-adv-x="600" d="M356 430L342 570V730H490V570L477 430H356ZM124 430L110 570V730H258V570L245 430H124Z" />
<glyph unicode="#" horiz-adv-x="600" d="M70 0L99 170H20V270H116L149 460H50V560H166L195 730H300L271 560H396L425 730H530L501 560H580V460H484L451 270H550V170H434L405 0H300L329 170H204L175 0H70ZM221 270H346L379 460H254L221 270Z" />
<glyph unicode="$" horiz-adv-x="600" d="M264 -140V-8Q164 0 106 56T47 200H197Q197 172 215 152T264 124V299L253 302Q160 324 109 383T57 529Q57 618 112 674T264 738V870H329V739Q427 731 484 677T541 535H391Q391 563 375 581T329 607V438L356 432Q453 410
503 353T553 206Q553 115 493 57T329 -9V-140H264ZM329 122Q364 127 383 147T403 199Q403 242 368 268T270 290L329 352V122ZM264 387V607Q236 600 222 582T207 535Q207 495 237 470T318 447L264 387Z" />
<glyph unicode="%" horiz-adv-x="600" d="M-15 0L513 730H615L87 0H-15ZM440 -5Q375 -5 333 32T290 130V195Q290 256 332 293T440 330Q505 330 547 293T590 195V130Q590 69 548 32T440 -5ZM440 79Q491 79 491 130V195Q491 247 440 247Q389 247 389 195V130Q389
79 440 79ZM160 400Q97 400 54 436T10 535V600Q10 663 53 699T160 735Q223 735 266 699T310 600V535Q310 472 267 436T160 400ZM160 483Q211 483 211 535V600Q211 652 160 652Q135 652 122 640T109 600V535Q109 508 122 496T160 483Z" />
<glyph unicode="&amp;" horiz-adv-x="600" d="M235 -10Q139 -10 87 44T34 195V265Q34 342 72 389T179 443L162 390Q131 434 113 478T95 565Q95 617 120 656T190 717T295 740Q357 740 403 716T474 650T500 550H365Q365 571 357 586T332 611T295 620Q274 620 258
611T234 587T225 550Q225 526 239 498T276 436L391 271L434 360H574L472 155L580 0H437L401 51Q334 -10 235 -10ZM249 110Q274 110 294 121T330 151L200 335Q187 325 181 308T174 265V195Q174 154 194 132T249 110Z" />
<glyph unicode="&apos;" horiz-adv-x="600" d="M240 430L226 570V730H374V570L361 430H240Z" />
<glyph unicode="(" horiz-adv-x="600" d="M485 -120Q326 -77 241 23T155 269V450Q155 545 194 623T308 756T485 840V690Q429 676 389 643T327 561T305 450V269Q305 209 326 161T388 79T485 32V-120Z" />
<glyph unicode=")" horiz-adv-x="600" d="M115 -120V32Q171 46 211 79T273 160T295 269V450Q295 512 274 561T212 643T115 690V840Q219 812 292 757T405 623T445 450V269Q445 124 360 24T115 -120Z" />
<glyph unicode="*" horiz-adv-x="600" d="M197 82L91 156L122 201Q139 225 164 248T214 290T258 322L256 326Q234 326 202 327T137 334T78 348L27 367L71 489L123 470Q149 461 177 443T230 406T273 371L278 375Q271 396 261 427T243 492T235 555V610H365V555Q365
526 358 492T340 427T322 375L326 372Q343 387 368 406T422 443T476 470L528 489L573 367L521 348Q495 339 463 334T399 328T344 326L342 322Q360 310 385 291T436 248T478 202L509 156L403 82L371 127Q355 151 342 183T319 246T303 299H297Q292 278 282 247T259
183T229 127L197 82Z" />
<glyph unicode="+" horiz-adv-x="600" d="M225 90V260H55V400H225V570H375V400H545V260H375V90H225Z" />
<glyph unicode="," horiz-adv-x="600" d="M140 -160L220 151H400L270 -160H140Z" />
<glyph unicode="-" horiz-adv-x="600" d="M140 260V400H460V260H140Z" />
<glyph unicode="." horiz-adv-x="600" d="M300 -10Q254 -10 227 17T199 91Q199 138 226 165T300 192Q347 192 374 165T401 91Q401 45 374 18T300 -10Z" />
<glyph unicode="/" horiz-adv-x="600" d="M50 -110L395 830H550L205 -110H50Z" />
<glyph unicode="0" horiz-adv-x="600" d="M301 -10Q227 -10 173 17T90 94T60 210V520Q60 586 89 635T173 712T300 740Q374 740 427 713T510 636T540 520V210Q540 144 511 95T428 18T301 -10ZM301 120Q347 120 373 144T400 210V520Q400 562 374 586T300 610Q253
610 227 586T200 520V210Q200 168 227 144T301 120ZM300 296Q269 296 250 316T230 368Q230 400 249 419T300 438Q332 438 351 419T370 368Q370 336 351 316T300 296Z" />
<glyph unicode="1" horiz-adv-x="600" d="M80 0V130H264V593L78 455V610L249 730H414V130H560V0H80Z" />
<glyph unicode="2" horiz-adv-x="600" d="M70 0V141L302 365Q343 405 363 439T384 513Q384 557 361 581T296 605Q251 605 226 579T200 505H50Q50 577 80 629T167 711T299 740Q370 740 422 714T504 640T534 529Q534 458 499 393T387 257L255 135H542V0H70Z" />
<glyph unicode="3" horiz-adv-x="600" d="M296 -10Q221 -10 167 15T82 88T52 200H202Q202 160 226 138T296 115Q342 115 366 137T390 200V260Q390 301 366 323T296 346H210V475L357 605H87V730H510V601L296 412V473Q409 473 474 416T540 261V200Q540 136 511 89T426
16T296 -10Z" />
<glyph unicode="4" horiz-adv-x="600" d="M375 0V134H55V343L329 730H499L195 301V264H375V420H525V0H375Z" />
<glyph unicode="5" horiz-adv-x="600" d="M299 -10Q190 -10 126 44T60 190H210Q212 157 235 139T299 120Q343 120 366 142T390 205V276Q390 317 367 338T299 360Q272 360 253 353T222 330H77L82 730H513V595H223L221 405H252L220 380Q220 426 255 452T352 479Q441
479 490 426T540 276V205Q540 105 476 48T299 -10Z" />
<glyph unicode="6" horiz-adv-x="600" d="M300 -10Q224 -10 167 21T77 110T45 242Q45 292 64 351T114 462L278 730H445L223 384L230 380Q252 412 286 429T364 446Q421 446 464 419T531 342T555 226Q555 155 523 102T434 20T300 -10ZM300 115Q349 115 379 145T409
224Q409 274 379 304T300 335Q251 335 221 305T191 224Q191 175 221 145T300 115Z" />
<glyph unicode="7" horiz-adv-x="600" d="M134 0L399 590H195V485H45V730H550V590L294 0H134Z" />
<glyph unicode="8" horiz-adv-x="600" d="M300 -10Q224 -10 169 15T83 86T52 192Q52 260 90 307T199 384L321 437Q352 451 370 476T388 534Q388 570 365 592T300 614Q259 614 235 592T210 534Q210 503 229 478T279 438L401 384Q478 350 513 303T548 192Q548 99
481 45T300 -10ZM300 116Q345 116 372 141T400 204Q400 234 380 263T328 306L192 367Q132 394 97 438T62 544Q62 599 91 643T173 714T300 740Q373 740 425 714T507 644T536 544Q536 480 502 437T409 367L272 306Q240 292 220 264T200 205Q200 166 227 141T300 116Z"
/>
<glyph unicode="9" horiz-adv-x="600" d="M155 0L377 346L370 350Q348 318 314 301T236 284Q179 284 136 311T69 388T45 504Q45 575 77 628T166 710T300 740Q377 740 434 709T523 621T555 488Q555 439 537 379T486 268L322 0H155ZM300 395Q349 395 379 425T409
506Q409 555 379 585T300 615Q251 615 221 585T191 506Q191 456 221 426T300 395Z" />
<glyph unicode=":" horiz-adv-x="600" d="M300 380Q255 380 228 405T200 470Q200 511 227 535T300 560Q345 560 372 536T400 470Q400 430 373 405T300 380ZM300 -10Q255 -10 228 15T200 80Q200 121 227 145T300 170Q345 170 372 146T400 80Q400 40 373 15T300 -10Z" />
<glyph unicode=";" horiz-adv-x="600" d="M145 -160L225 151H405L275 -160H145ZM290 380Q251 380 226 405T200 470Q200 509 225 534T290 560H310Q349 560 374 535T400 470Q400 431 375 406T310 380H290Z" />
<glyph unicode="&lt;" horiz-adv-x="600" d="M530 49L70 257V400L530 609V473L254 352Q234 343 212 337T177 329Q190 327 212 322T254 307L530 186V49Z" />
<glyph unicode="=" horiz-adv-x="600" d="M80 385V525H520V385H80ZM80 135V275H520V135H80Z" />
<glyph unicode="&gt;" horiz-adv-x="600" d="M70 49V185L346 306Q366 315 388 321T423 329Q410 331 388 336T346 351L70 472V609L530 401V258L70 49Z" />
<glyph unicode="?" horiz-adv-x="600" d="M181 225L176 440H276Q317 440 341 460T365 515Q365 550 341 570T275 590H110V730H265Q342 730 398 704T484 629T515 515Q515 452 489 405T416 332T306 305V225H181ZM229 -5Q195 -5 175 14T154 65Q154 97 174 116T229
135H259Q293 135 313 116T334 65Q334 33 314 14T258 -5H229Z" />
<glyph unicode="@" horiz-adv-x="600" d="M325 -179Q232 -179 165 -144T62 -44T25 111V450Q25 540 60 605T160 705T315 740Q398 740 457 709T548 624T580 500V65H469L479 120H447L460 151Q460 108 430 82T350 55Q289 55 255 98T220 220V330Q220 408 254 451T350
495Q400 495 430 469T460 400L445 420H480L460 487V500Q460 536 443 567T393 616T315 635Q234 635 190 587T145 450V111Q145 24 191 -22T325 -69H395V-179H325ZM400 140Q432 140 446 158T460 220V330Q460 368 445 389T400 410Q371 410 356 389T340 330V220Q340
177 355 159T400 140Z" />
<glyph unicode="A" horiz-adv-x="600" d="M25 0L204 730H394L575 0H422L387 165H213L178 0H25ZM238 285H361L326 461Q319 499 312 536T300 595Q296 574 290 537T275 462L238 285Z" />
<glyph unicode="B" horiz-adv-x="600" d="M66 0V730H301Q412 730 478 680T544 543Q544 495 522 459T462 403T380 383V380Q429 381 469 362T535 305T560 211Q560 147 530 100T443 26T310 0H66ZM211 121H304Q353 121 381 147T409 219Q409 265 381 291T304 318H211V121ZM211
436H299Q343 436 368 459T393 523Q393 564 368 586T299 609H211V436Z" />
<glyph unicode="C" horiz-adv-x="600" d="M305 -10Q231 -10 176 17T91 94T60 210V520Q60 587 90 636T176 712T305 740Q378 740 432 713T517 636T548 520H398Q398 564 374 587T304 610Q259 610 235 587T210 520V210Q210 167 234 144T304 120Q349 120 373 143T398
210H548Q548 144 518 95T433 18T305 -10Z" />
<glyph unicode="D" horiz-adv-x="600" d="M63 0V730H300Q376 730 432 701T520 620T552 496V235Q552 165 521 112T433 30T300 0H63ZM213 140H300Q346 140 374 166T402 235V496Q402 538 374 564T300 590H213V140Z" />
<glyph unicode="E" horiz-adv-x="600" d="M80 0V730H530V602H227V438H495V310H227V128H530V0H80Z" />
<glyph unicode="F" horiz-adv-x="600" d="M70 0V730H540V590H218V428H514V288H220V0H70Z" />
<glyph unicode="G" horiz-adv-x="600" d="M305 -10Q231 -10 176 17T91 94T60 210V520Q60 587 90 636T176 712T305 740Q378 740 432 713T517 636T548 520H398Q398 564 374 587T304 610Q259 610 235 587T210 520V210Q210 167 234 144T304 120Q349 120 373 143T398
210V273H290V400H548V210Q548 144 518 95T433 18T305 -10Z" />
<glyph unicode="H" horiz-adv-x="600" d="M66 0V730H216V450H384V730H534V0H384V310H216V0H66Z" />
<glyph unicode="I" horiz-adv-x="600" d="M80 0V130H225V600H80V730H520V600H375V130H520V0H80Z" />
<glyph unicode="J" horiz-adv-x="600" d="M270 -11Q155 -11 88 51T20 220H170Q170 174 197 147T270 119Q316 119 343 145T370 218V590H205V730H520V218Q520 112 453 51T270 -11Z" />
<glyph unicode="K" horiz-adv-x="600" d="M65 0V730H215V447H286L406 730H569L419 381L575 0H410L286 309H215V0H65Z" />
<glyph unicode="L" horiz-adv-x="600" d="M95 0V730H245V140H540V0H95Z" />
<glyph unicode="M" horiz-adv-x="600" d="M42 0V730H211L278 500Q289 464 294 437T301 399Q302 410 307 437T323 500L389 730H558V0H421V200Q421 255 423 315T430 436T439 548T448 640L364 310H237L149 640Q154 603 159 552T168 441T176 319T179 200V0H42Z" />
<glyph unicode="N" horiz-adv-x="600" d="M60 0V730H235L424 165Q421 202 417 250T411 347T408 430V730H540V0H365L178 565Q181 533 184 489T189 400T192 320V0H60Z" />
<glyph unicode="O" horiz-adv-x="600" d="M300 -10Q227 -10 173 17T90 94T60 210V520Q60 586 89 635T173 712T300 740Q374 740 427 713T510 636T540 520V210Q540 144 511 95T428 18T300 -10ZM300 120Q345 120 367 143T390 210V520Q390 564 368 587T300 610Q254
610 232 587T210 520V210Q210 167 232 144T300 120Z" />
<glyph unicode="P" horiz-adv-x="600" d="M66 0V730H315Q392 730 449 701T538 620T570 498Q570 429 538 377T449 295T315 266H216V0H66ZM216 401H315Q363 401 391 427T420 498Q420 542 392 568T315 595H216V401Z" />
<glyph unicode="Q" horiz-adv-x="600" d="M400 -180L288 4L319 -9Q315 -9 310 -9T300 -10Q228 -10 174 17T90 95T60 210V520Q60 587 90 636T174 712T300 740Q372 740 426 713T510 636T540 520V210Q540 145 513 96T433 20L556 -180H400ZM300 121Q347 121 368 144T390
210V520Q390 564 367 587T300 610Q257 610 234 587T210 520V210Q210 167 232 144T300 121Z" />
<glyph unicode="R" horiz-adv-x="600" d="M65 0V730H300Q378 730 435 703T523 626T555 508Q555 437 521 381T427 300L565 0H402L284 276H214V0H65ZM214 406H300Q350 406 377 431T405 501Q405 548 378 574T300 600H214V406Z" />
<glyph unicode="S" horiz-adv-x="600" d="M300 -10Q223 -10 166 16T78 89T47 200H197Q197 163 225 142T303 120Q350 120 376 141T403 199Q403 231 383 254T327 285L253 302Q160 324 109 383T57 529Q57 593 86 640T170 714T298 740Q410 740 475 685T541 535H391Q391
570 367 590T296 610Q253 610 230 591T207 535Q207 503 225 481T278 450L356 432Q453 410 503 353T553 206Q553 142 522 93T434 17T300 -10Z" />
<glyph unicode="T" horiz-adv-x="600" d="M225 0V590H40V730H560V590H375V0H225Z" />
<glyph unicode="U" horiz-adv-x="600" d="M300 -10Q189 -10 125 50T60 214V730H210V215Q210 169 233 145T300 120Q342 120 366 144T390 215V730H540V214Q540 111 476 51T300 -10Z" />
<glyph unicode="V" horiz-adv-x="600" d="M206 0L25 730H180L281 269Q286 245 293 208T305 145Q309 171 315 208T326 270L424 730H575L396 0H206Z" />
<glyph unicode="W" horiz-adv-x="600" d="M78 0L10 730H133L170 242Q171 228 172 203T174 150T176 100Q178 122 180 149T186 202T190 242L244 730H358L410 242Q412 228 414 203T420 150T426 100Q427 122 428 149T430 202T432 242L466 730H590L517 0H361L312 485Q310
502 308 529T304 587T300 640Q299 617 297 587T293 530T289 485L235 0H78Z" />
<glyph unicode="X" horiz-adv-x="600" d="M20 0L216 377L33 730H198L274 570Q285 548 292 530T302 504Q304 512 311 530T328 570L406 730H567L384 377L580 0H415L327 180Q317 202 309 221T297 250Q294 240 287 221T269 180L181 0H20Z" />
<glyph unicode="Y" horiz-adv-x="600" d="M225 0V260L15 730H172L264 510Q278 477 288 440T303 380Q308 403 317 440T340 510L429 730H585L375 260V0H225Z" />
<glyph unicode="Z" horiz-adv-x="600" d="M75 0V140L343 590H83V730H514V590L245 140H525V0H75Z" />
<glyph unicode="[" horiz-adv-x="600" d="M170 -110V830H475V690H320V30H475V-110H170Z" />
<glyph unicode="\" horiz-adv-x="600" d="M394 -110L49 830H204L549 -110H394Z" />
<glyph unicode="]" horiz-adv-x="600" d="M125 -110V30H280V690H125V830H430V-110H125Z" />
<glyph unicode="^" horiz-adv-x="600" d="M60 340L228 730H374L540 340H398L321 550Q313 573 308 592T301 622Q300 612 295 593T281 550L201 340H60Z" />
<glyph unicode="_" horiz-adv-x="600" d="M60 -165V-25H540V-165H60Z" />
<glyph unicode="`" horiz-adv-x="600" d="M267 645L150 785H315L420 645H267Z" />
<glyph unicode="a" horiz-adv-x="600" d="M229 -10Q146 -10 98 35T49 157Q49 240 106 284T272 329H386V370Q386 402 364 421T303 440Q268 440 245 424T217 380H72Q81 463 144 511T308 560Q413 560 474 509T536 370V0H391V90H367L392 125Q392 63 348 27T229 -10ZM285
100Q329 100 357 123T386 185V244H275Q241 244 220 225T199 173Q199 139 222 120T285 100Z" />
<glyph unicode="b" horiz-adv-x="600" d="M357 -10Q289 -10 250 29T211 140L246 105H211V0H66V730H216V580L211 445H246L211 410Q211 481 250 520T357 560Q440 560 490 502T540 345V205Q540 106 490 48T357 -10ZM303 120Q345 120 367 143T390 210V340Q390 383
368 406T303 430Q262 430 239 407T216 340V210Q216 167 239 144T303 120Z" />
<glyph unicode="c" horiz-adv-x="600" d="M303 -10Q230 -10 175 17T90 94T60 210V340Q60 407 90 456T175 532T303 560Q412 560 477 505T546 355H396Q393 390 369 410T303 430Q258 430 234 407T210 340V210Q210 167 234 144T303 120Q344 120 368 139T396 195H546Q542
100 477 45T303 -10Z" />
<glyph unicode="d" horiz-adv-x="600" d="M243 -10Q160 -10 110 48T60 205V345Q60 443 110 501T243 560Q311 560 350 521T389 410L354 445H389L384 580V730H534V0H389V105H354L389 140Q389 69 350 30T243 -10ZM297 120Q338 120 361 143T384 210V340Q384 383 361
406T297 430Q255 430 233 407T210 340V210Q210 167 232 144T297 120Z" />
<glyph unicode="e" horiz-adv-x="600" d="M301 -10Q228 -10 174 17T90 94T60 210V340Q60 406 89 455T173 532T301 560Q374 560 427 533T510 456T540 340V240H203V210Q203 158 228 132T303 105Q338 105 359 117T388 150H535Q517 78 454 34T301 -10ZM397 317V342Q397
393 374 420T301 447Q252 447 228 419T203 340V325L407 327L397 317Z" />
<glyph unicode="f" horiz-adv-x="600" d="M195 0V350H49V485H195V560Q195 637 247 683T385 730H546V600H390Q370 600 358 588T345 555V485H546V350H345V0H195Z" />
<glyph unicode="g" horiz-adv-x="600" d="M145 -180V-60H300Q342 -60 364 -39T387 19V40L389 145H354L389 180Q389 109 350 70T243 30Q160 30 110 88T60 245V345Q60 443 110 501T243 560Q311 560 350 521T389 410L354 445H389L384 550H534V14Q534 -76 473 -128T305
-180H145ZM297 160Q338 160 361 183T384 250V340Q384 383 361 406T297 430Q255 430 233 407T210 340V250Q210 207 232 184T297 160Z" />
<glyph unicode="h" horiz-adv-x="600" d="M66 0V730H216V550L211 445H255L211 410Q211 480 251 520T359 560Q439 560 487 504T536 355V0H386V340Q386 383 364 406T300 430Q260 430 238 407T216 340V0H66Z" />
<glyph unicode="i" horiz-adv-x="600" d="M70 0V136H260V415H95V550H400V136H560V0H70ZM320 637Q279 637 255 658T230 715Q230 751 254 772T320 793Q361 793 385 772T410 715Q410 679 386 658T320 637Z" />
<glyph unicode="j" horiz-adv-x="600" d="M80 -180V-40H240Q281 -40 303 -18T325 45V410H110V550H475V40Q475 -62 415 -121T251 -180H80ZM395 637Q354 637 330 658T305 715Q305 751 329 772T395 793Q436 793 460 772T485 715Q485 679 461 658T395 637Z" />
<glyph unicode="k" horiz-adv-x="600" d="M69 0V730H219V342H293L408 550H575L422 281L578 0H408L292 216H219V0H69Z" />
<glyph unicode="l" horiz-adv-x="600" d="M390 0Q332 0 288 24T220 93T195 195V595H25V730H345V195Q345 168 361 152T405 135H565V0H390Z" />
<glyph unicode="m" horiz-adv-x="600" d="M42 0V550H160V470H184L165 456Q165 503 192 531T259 560Q302 560 326 523T350 425L332 470H360L351 456Q351 503 377 531T447 560Q497 560 528 523T559 420V0H430V410Q430 433 420 445T391 458Q372 458 362 446T352 410V0H249V410Q249
433 239 445T210 458Q191 458 181 446T171 410V0H42Z" />
<glyph unicode="n" horiz-adv-x="600" d="M66 0V550H211V445H255L211 410Q211 480 251 520T359 560Q439 560 487 504T536 355V0H386V340Q386 383 364 406T300 430Q260 430 238 407T216 340V0H66Z" />
<glyph unicode="o" horiz-adv-x="600" d="M300 -10Q227 -10 173 17T90 94T60 210V340Q60 406 89 455T173 532T300 560Q374 560 427 533T510 456T540 340V210Q540 144 511 95T428 18T300 -10ZM300 120Q344 120 367 143T390 210V340Q390 384 367 407T300 430Q257
430 234 407T210 340V210Q210 167 233 144T300 120Z" />
<glyph unicode="p" horiz-adv-x="600" d="M66 -180V550H211V445H246L211 410Q211 481 250 520T357 560Q440 560 490 502T540 345V205Q540 140 518 92T454 17T357 -10Q289 -10 250 29T211 140L246 105H211L216 -30V-180H66ZM303 120Q345 120 367 143T390 210V340Q390
384 368 407T303 430Q262 430 239 407T216 340V210Q216 167 239 144T303 120Z" />
<glyph unicode="q" horiz-adv-x="600" d="M384 -180V-30L389 105H354L387 140Q387 69 349 30T243 -10Q160 -10 110 48T60 205V345Q60 443 110 501T243 560Q311 560 349 521T387 410L354 445H389V550H534V-180H384ZM297 120Q338 120 361 143T384 210V340Q384 383
361 406T297 430Q255 430 233 407T210 340V210Q210 167 232 144T297 120Z" />
<glyph unicode="r" horiz-adv-x="600" d="M82 0V550H222V445H260L217 381Q217 470 258 515T378 560Q469 560 519 505T570 350V305H410V340Q410 385 386 410T320 435Q277 435 255 410T232 340V0H82Z" />
<glyph unicode="s" horiz-adv-x="600" d="M277 -10Q209 -10 158 11T79 71T50 160H200Q200 136 221 122T277 107H321Q362 107 383 122T405 164Q405 189 386 202T327 221L263 229Q160 242 113 279T66 392Q66 472 121 516T282 560H320Q421 560 481 516T541 398H391Q391
418 372 430T320 443H282Q245 443 228 431T211 393Q211 370 226 358T276 341L345 332Q449 319 499 280T550 164Q550 80 492 35T321 -10H277Z" />
<glyph unicode="t" horiz-adv-x="600" d="M360 0Q276 0 228 48T180 180V415H35V550H180V705H330V550H535V415H330V180Q330 135 375 135H525V0H360Z" />
<glyph unicode="u" horiz-adv-x="600" d="M300 -10Q189 -10 127 50T64 214V550H214V215Q214 169 236 145T300 120Q341 120 363 144T386 215V550H536V214Q536 109 473 50T300 -10Z" />
<glyph unicode="v" horiz-adv-x="600" d="M207 0L27 550H182L274 241Q282 213 290 180T302 127Q307 147 314 180T329 240L420 550H573L395 0H207Z" />
<glyph unicode="w" horiz-adv-x="600" d="M90 0L10 550H130L170 250Q175 217 178 175T184 106Q187 133 192 174T203 250L249 550H353L397 250Q402 216 407 174T416 105Q418 133 422 175T431 250L473 550H590L509 0H359L318 310Q314 338 309 377T301 442Q297 416
292 377T283 310L241 0H90Z" />
<glyph unicode="x" horiz-adv-x="600" d="M26 0L216 285L39 550H206L274 440Q282 427 289 411T300 385Q304 395 311 411T326 440L394 550H561L385 285L574 0H407L327 130Q319 144 312 159T300 185Q296 175 289 160T274 130L193 0H26Z" />
<glyph unicode="y" horiz-adv-x="600" d="M157 -180L232 27L26 550H189L272 310Q281 283 290 245T305 182Q310 206 319 244T338 310L418 550H574L314 -180H157Z" />
<glyph unicode="z" horiz-adv-x="600" d="M70 0V130L342 420H80V550H519V420L247 130H530V0H70Z" />
<glyph unicode="{" horiz-adv-x="600" d="M440 -111Q386 -111 344 -88T279 -24T260 74L270 219Q272 251 252 270T200 289H75V429H200Q232 429 252 448T270 499L260 650Q257 705 279 745T343 808T440 830H525V690H470Q442 690 425 676T410 630L420 479Q424 424
382 391T265 357V364Q339 364 381 330T420 239L410 89Q409 62 426 46T470 29H525V-111H440Z" />
<glyph unicode="|" horiz-adv-x="600" d="M225 -110V830H375V-110H225Z" />
<glyph unicode="}" horiz-adv-x="600" d="M75 -111V29H130Q157 29 174 45T190 89L180 239Q176 295 219 329T335 364V357Q262 357 219 390T180 479L190 630Q192 662 176 676T130 690H75V830H160Q215 830 257 808T321 746T340 650L330 499Q328 468 348 449T400 429H525V289H400Q369
289 349 270T330 219L340 74Q344 18 322 -23T257 -88T160 -111H75Z" />
<glyph unicode="~" horiz-adv-x="600" d="M40 255V340Q40 404 82 442T195 480Q238 480 266 466T313 431T345 389T373 354T408 340Q424 340 432 349T440 375V450H560V365Q560 301 518 263T405 225Q362 225 334 239T287 274T255 316T227 351T192 365Q176 365 168
356T160 330V255H40Z" />
<glyph unicode="&#xa0;" horiz-adv-x="600" />
<glyph unicode="&#xa1;" horiz-adv-x="600" d="M221 -180V-20L244 305H356L379 -20V-180H221ZM285 415Q251 415 231 434T210 486Q210 518 231 536T286 555H315Q349 555 369 536T390 485Q390 454 370 435T315 415H285Z" />
<glyph unicode="&#xa2;" horiz-adv-x="600" d="M272 -140V690H337V-140H272ZM303 -10Q230 -10 175 17T90 94T60 210V340Q60 407 90 456T175 532T303 560Q412 560 477 505T546 355H396Q393 390 369 410T303 430Q258 430 234 407T210 340V210Q210 167 234 144T303
120Q344 120 368 139T396 195H546Q542 100 477 45T303 -10Z" />
<glyph unicode="&#xa3;" horiz-adv-x="600" d="M75 0V160Q99 170 124 187T166 227T184 274Q184 314 171 341T139 389T99 430T66 476T53 540Q53 596 83 641T169 713T300 740Q371 740 424 714T508 640T543 530H393Q389 563 364 586T296 610Q253 610 228 587T203
532Q203 507 214 489T242 454T275 416T303 363T315 283Q315 240 291 210T233 162T165 140H535V0H75ZM65 285V405H435V285H65Z" />
<glyph unicode="&#xa4;" horiz-adv-x="600" d="M493 110L405 197Q383 184 357 178T301 171Q273 171 247 177T197 197L110 110L40 180L125 265Q111 288 103 315T95 373Q95 402 102 429T124 478L38 565L108 636L196 548Q219 561 245 568T301 575Q360 575 408 547L492
632L562 562L478 477Q491 455 498 429T505 373Q505 344 498 317T477 267L564 180L493 110ZM301 266Q331 266 354 280T391 318T405 373Q405 404 392 428T355 466T301 480Q271 480 247 466T209 428T195 373Q195 343 209 319T247 280T301 266Z" />
<glyph unicode="&#xa5;" horiz-adv-x="600" d="M60 260V365H540V260H60ZM60 100V205H540V100H60ZM225 0V260L15 730H172L264 510Q278 477 288 440T303 380Q308 403 317 440T340 510L429 730H585L375 260V0H225Z" />
<glyph unicode="&#xa6;" horiz-adv-x="600" d="M225 450V830H375V450H225ZM225 -110V270H375V-110H225Z" />
<glyph unicode="&#xa7;" horiz-adv-x="600" d="M284 -155Q214 -155 163 -137T82 -83T45 2H195Q201 -18 225 -30T284 -43H314Q359 -43 384 -25T410 23Q410 47 391 63T330 88L237 108Q152 126 104 168T55 271Q55 330 91 363T196 403V410Q166 417 133 436T78 488T55
566Q55 646 115 693T284 740H314Q416 740 476 701T546 588H396Q392 604 371 616T314 628H284Q242 628 221 612T200 570Q200 547 216 531T268 507L371 485Q460 466 507 421T555 314Q555 256 518 222T413 182V175Q444 171 476 153T532 102T555 19Q555 -61 492 -108T314
-155H284ZM314 207Q343 201 364 209T398 237T410 288Q410 320 391 344T340 375L285 387Q259 393 240 385T210 356T199 304Q199 270 215 247T259 218L314 207Z" />
<glyph unicode="&#xa8;" horiz-adv-x="600" d="M422 637Q385 637 364 658T342 715Q342 751 363 772T422 793Q459 793 480 772T502 715Q502 679 481 658T422 637ZM178 637Q141 637 120 658T98 715Q98 751 119 772T178 793Q215 793 236 772T258 715Q258 679 237
658T178 637Z" />
<glyph unicode="&#xa9;" horiz-adv-x="600" d="M300 110Q224 110 167 140T77 224T45 350V500Q45 572 77 626T166 710T300 740Q377 740 434 710T523 626T555 500V350Q555 278 523 224T434 140T300 110ZM300 160Q360 160 405 183T475 250T500 350V500Q500 557 475
599T405 666T300 690Q240 690 195 666T125 600T100 500V350Q100 293 125 250T195 184T300 160ZM305 245Q244 245 207 279T170 370V480Q170 536 207 570T305 605Q365 605 402 571T439 480H354Q354 503 341 516T305 530Q283 530 269 517T255 480V370Q255 348 269
334T305 320Q327 320 340 334T354 370H439Q439 314 402 280T305 245Z" />
<glyph unicode="&#xaa;" horiz-adv-x="600" d="M353 455V510H350V650Q350 664 338 672T305 680Q286 680 274 673T260 655H180Q188 693 222 716T305 740Q361 740 395 716T430 650V455H353ZM264 450Q220 450 193 474T165 538Q165 577 196 601T280 625H361V575H280Q264
575 255 566T245 540Q245 525 257 515T287 505Q315 505 332 519T350 555H361V510H350Q339 482 316 466T264 450Z" />
<glyph unicode="&#xab;" horiz-adv-x="600" d="M428 40L265 280L430 520H585L417 282L585 40H428ZM178 40L15 280L180 520H335L167 282L335 40H178Z" />
<glyph unicode="&#xac;" horiz-adv-x="600" d="M380 175V310H70V450H530V175H380Z" />
<glyph unicode="&#xad;" horiz-adv-x="600" d="M140 260V400H460V260H140Z" />
<glyph unicode="&#xae;" horiz-adv-x="600" d="M300 110Q224 110 167 140T77 224T45 350V500Q45 572 77 626T166 710T300 740Q377 740 434 710T523 626T555 500V350Q555 278 523 224T434 140T300 110ZM353 250L291 408H372L437 250H353ZM300 160Q360 160 405 183T475
250T500 350V500Q500 557 475 599T405 666T300 690Q240 690 195 666T125 600T100 500V350Q100 293 125 250T195 184T300 160ZM180 250V600H304Q361 600 396 570T431 490Q431 441 396 413T304 385H260V250H180ZM260 450H304Q325 450 337 462T350 495Q350 515 338
527T304 540H260V450Z" />
<glyph unicode="&#xaf;" horiz-adv-x="600" d="M120 655V765H480V655H120Z" />
<glyph unicode="&#xb0;" horiz-adv-x="600" d="M300 450Q233 450 192 490T150 595Q150 660 191 700T300 740Q368 740 409 700T450 595Q450 530 409 490T300 450ZM300 515Q334 515 354 537T375 595Q375 631 355 653T300 675Q266 675 246 653T225 595Q225 559 245
537T300 515Z" />
<glyph unicode="&#xb1;" horiz-adv-x="600" d="M65 0V111H230V260H60V400H230V570H380V400H550V260H380V111H535V0H65Z" />
<glyph unicode="&#xb2;" horiz-adv-x="600" d="M153 405V502L327 619Q345 631 356 651T367 694Q367 723 349 740T302 758Q273 758 255 741T237 694H142Q142 761 185 800T302 840Q375 840 418 801T462 695Q462 657 438 619T374 556L264 488H468V405H153Z" />
<glyph unicode="&#xb3;" horiz-adv-x="600" d="M284 395Q211 395 166 434T120 540H215Q215 509 234 493T284 477Q315 477 332 493T350 542Q350 574 333 591T285 609H255V675L334 747H153V830H417V741L305 639V674Q367 674 406 638T445 542Q445 474 401 435T284 395Z" />
<glyph unicode="&#xb4;" horiz-adv-x="600" d="M182 645L287 785H448L331 645H182Z" />
<glyph unicode="&#xb5;" horiz-adv-x="600" d="M65 -180V550H215V215Q215 169 236 145T300 120Q342 120 363 144T385 215V550H535V214Q535 110 477 50T315 -10Q270 -10 239 5T189 41T165 83H156Q157 83 163 67T175 28T184 -13L204 -180H65Z" />
<glyph unicode="&#xb6;" horiz-adv-x="600" d="M240 -180V310Q155 310 103 357T50 480V560Q50 637 102 683T240 730H350V-180H240ZM420 -180V730H530V-180H420Z" />
<glyph unicode="&#xb7;" horiz-adv-x="600" d="M300 252Q254 252 227 279T199 353Q199 400 226 427T300 454Q347 454 374 427T401 353Q401 307 374 280T300 252Z" />
<glyph unicode="&#xb8;" horiz-adv-x="600" d="M190 -225V-155H270Q295 -155 310 -143T325 -119Q325 -96 295 -83T209 -69L244 16H317L298 -39Q329 -41 361 -51T417 -82T440 -133Q440 -170 402 -197T300 -225H190Z" />
<glyph unicode="&#xb9;" horiz-adv-x="600" d="M145 405V490H278V747L154 658V756L253 830H373V490H475V405H145Z" />
<glyph unicode="&#xba;" horiz-adv-x="600" d="M300 450Q239 450 202 484T165 571V620Q165 674 202 707T300 740Q361 740 398 707T435 620V571Q435 519 398 485T300 450ZM300 520Q325 520 340 534T355 571V620Q355 643 340 656T300 670Q275 670 260 657T245 620V571Q245
548 260 534T300 520Z" />
<glyph unicode="&#xbb;" horiz-adv-x="600" d="M265 40L432 280L265 520H422L585 280L420 40H265ZM15 40L182 280L15 520H172L335 280L170 40H15Z" />
<glyph unicode="&#xbc;" horiz-adv-x="600" d="M37 404V479H151V667Q145 658 134 646T112 624L51 577V675L126 729H241V479H331V404H37ZM459 0V60H294V160L420 325H519L384 146V130H459V205H549V0H459ZM70 0L449 730H530L151 0H70Z" />
<glyph unicode="&#xbd;" horiz-adv-x="600" d="M310 0V89L453 169Q473 180 481 192T490 219Q490 238 479 249T448 260Q426 260 413 248T400 216H310Q310 266 348 298T448 330Q507 330 543 302T580 227Q580 192 557 164T483 110L425 79V70Q436 72 454 73T485 75H585V0H310ZM37
405V480H151V668Q145 659 134 647T112 625L51 578V676L126 730H241V480H331V405H37ZM70 0L449 730H530L151 0H70Z" />
<glyph unicode="&#xbe;" horiz-adv-x="600" d="M459 0V60H294V160L420 325H519L384 146V130H459V205H549V0H459ZM155 400Q93 400 55 429T17 505H107Q107 489 120 480T155 470Q176 470 188 481T201 510Q201 528 189 539T156 550H126V616L188 665H41V730H276V668L176
590V610Q228 610 259 583T291 510Q291 461 254 431T155 400ZM70 0L449 730H530L151 0H70Z" />
<glyph unicode="&#xbf;" horiz-adv-x="600" d="M330 -170Q255 -170 199 -144T112 -70T80 40Q80 102 106 148T179 219T289 245V325H414L419 110H319Q278 110 254 92T230 40Q230 7 254 -11T320 -30H485V-170H330ZM341 415Q307 415 287 434T266 486Q266 518 287 536T342
555H371Q405 555 425 536T446 485Q446 454 426 435T371 415H341Z" />
<glyph unicode="&#xc0;" horiz-adv-x="600" d="M25 0L204 730H394L575 0H422L387 165H213L178 0H25ZM238 285H361L326 461Q319 499 312 536T300 595Q296 574 290 537T275 462L238 285ZM493 810L376 950H541L646 810H493Z" />
<glyph unicode="&#xc1;" horiz-adv-x="600" d="M25 0L204 730H394L575 0H422L387 165H213L178 0H25ZM238 285H361L326 461Q319 499 312 536T300 595Q296 574 290 537T275 462L238 285ZM212 810L317 950H478L361 810H212Z" />
<glyph unicode="&#xc2;" horiz-adv-x="600" d="M25 0L204 730H394L575 0H422L387 165H213L178 0H25ZM238 285H361L326 461Q319 499 312 536T300 595Q296 574 290 537T275 462L238 285ZM95 810L230 950H370L505 810H370L298 880L231 810H95Z" />
<glyph unicode="&#xc3;" horiz-adv-x="600" d="M25 0L204 730H394L575 0H422L387 165H213L178 0H25ZM238 285H361L326 461Q319 499 312 536T300 595Q296 574 290 537T275 462L238 285ZM370 800Q338 800 319 809T286 830T262 851T235 860Q222 860 214 851T205 827V805H120V840Q120
892 150 926T230 960Q262 960 281 951T314 930T338 909T365 900Q379 900 387 907T395 928V955H480V920Q480 868 450 834T370 800Z" />
<glyph unicode="&#xc4;" horiz-adv-x="600" d="M25 0L204 730H394L575 0H422L387 165H213L178 0H25ZM238 285H361L326 461Q319 499 312 536T300 595Q296 574 290 537T275 462L238 285ZM422 802Q385 802 364 823T342 880Q342 916 363 937T422 958Q459 958 480 937T502
880Q502 844 481 823T422 802ZM178 802Q141 802 120 823T98 880Q98 916 119 937T178 958Q215 958 236 937T258 880Q258 844 237 823T178 802Z" />
<glyph unicode="&#xc5;" horiz-adv-x="600" d="M25 0L204 730H394L575 0H422L387 165H213L178 0H25ZM238 285H361L326 461Q319 499 312 536T300 595Q296 574 290 537T275 462L238 285ZM300 753Q237 753 199 788T160 880Q160 937 198 972T300 1007Q363 1007 401
972T440 880Q440 823 402 788T300 753ZM300 823Q327 823 343 839T360 881Q360 906 344 921T300 937Q273 937 257 922T240 880Q240 855 256 839T300 823Z" />
<glyph unicode="&#xc6;" horiz-adv-x="600" d="M0 0L137 730H580V605H416V436H555V305H416V126H580V0H291V165H169L143 0H0ZM186 270H291V605H242L186 270Z" />
<glyph unicode="&#xc7;" horiz-adv-x="600" d="M200 -225V-155H280Q305 -155 320 -143T335 -119Q335 -96 305 -83T219 -69L254 16H327L308 -39Q339 -41 371 -51T427 -82T450 -133Q450 -170 412 -197T310 -225H200ZM304 -10Q231 -10 176 17T91 94T60 210V520Q60
587 90 636T176 712T304 740Q378 740 432 713T517 636T548 520H398Q398 564 374 587T304 610Q259 610 235 587T210 520V210Q210 167 234 144T304 120Q349 120 373 143T398 210H548Q548 144 518 95T433 18T304 -10Z" />
<glyph unicode="&#xc8;" horiz-adv-x="600" d="M80 0V730H530V602H227V438H495V310H227V128H530V0H80ZM513 810L396 950H561L666 810H513Z" />
<glyph unicode="&#xc9;" horiz-adv-x="600" d="M80 0V730H530V602H227V438H495V310H227V128H530V0H80ZM232 810L337 950H498L381 810H232Z" />
<glyph unicode="&#xca;" horiz-adv-x="600" d="M80 0V730H530V602H227V438H495V310H227V128H530V0H80ZM115 810L250 950H390L525 810H390L318 880L251 810H115Z" />
<glyph unicode="&#xcb;" horiz-adv-x="600" d="M80 0V730H530V602H227V438H495V310H227V128H530V0H80ZM442 802Q405 802 384 823T362 880Q362 916 383 937T442 958Q479 958 500 937T522 880Q522 844 501 823T442 802ZM198 802Q161 802 140 823T118 880Q118 916
139 937T198 958Q235 958 256 937T278 880Q278 844 257 823T198 802Z" />
<glyph unicode="&#xcc;" horiz-adv-x="600" d="M80 0V130H225V600H80V730H520V600H375V130H520V0H80ZM493 810L376 950H541L646 810H493Z" />
<glyph unicode="&#xcd;" horiz-adv-x="600" d="M80 0V130H225V600H80V730H520V600H375V130H520V0H80ZM212 810L317 950H478L361 810H212Z" />
<glyph unicode="&#xce;" horiz-adv-x="600" d="M80 0V130H225V600H80V730H520V600H375V130H520V0H80ZM95 810L230 950H370L505 810H370L298 880L231 810H95Z" />
<glyph unicode="&#xcf;" horiz-adv-x="600" d="M80 0V130H225V600H80V730H520V600H375V130H520V0H80ZM422 802Q385 802 364 823T342 880Q342 916 363 937T422 958Q459 958 480 937T502 880Q502 844 481 823T422 802ZM178 802Q141 802 120 823T98 880Q98 916 119
937T178 958Q215 958 236 937T258 880Q258 844 237 823T178 802Z" />
<glyph unicode="&#xd0;" horiz-adv-x="600" d="M10 325V420H290V325H10ZM63 0V730H300Q376 730 432 701T520 620T552 496V235Q552 165 521 112T433 30T300 0H63ZM213 140H300Q346 140 374 166T402 235V496Q402 538 374 564T300 590H213V140Z" />
<glyph unicode="&#xd1;" horiz-adv-x="600" d="M60 0V730H235L424 165Q421 202 417 250T411 347T408 430V730H540V0H365L178 565Q181 533 184 489T189 400T192 320V0H60ZM370 800Q338 800 319 809T286 830T262 851T235 860Q222 860 214 851T205 827V805H120V840Q120
892 150 926T230 960Q262 960 281 951T314 930T338 909T365 900Q379 900 387 907T395 928V955H480V920Q480 868 450 834T370 800Z" />
<glyph unicode="&#xd2;" horiz-adv-x="600" d="M300 -10Q227 -10 173 17T90 94T60 210V520Q60 586 89 635T173 712T300 740Q374 740 427 713T510 636T540 520V210Q540 144 511 95T428 18T300 -10ZM300 120Q345 120 367 143T390 210V520Q390 564 368 587T300 610Q254
610 232 587T210 520V210Q210 167 232 144T300 120ZM493 810L376 950H541L646 810H493Z" />
<glyph unicode="&#xd3;" horiz-adv-x="600" d="M300 -10Q227 -10 173 17T90 94T60 210V520Q60 586 89 635T173 712T300 740Q374 740 427 713T510 636T540 520V210Q540 144 511 95T428 18T300 -10ZM300 120Q345 120 367 143T390 210V520Q390 564 368 587T300 610Q254
610 232 587T210 520V210Q210 167 232 144T300 120ZM212 810L317 950H478L361 810H212Z" />
<glyph unicode="&#xd4;" horiz-adv-x="600" d="M300 -10Q227 -10 173 17T90 94T60 210V520Q60 586 89 635T173 712T300 740Q374 740 427 713T510 636T540 520V210Q540 144 511 95T428 18T300 -10ZM300 120Q345 120 367 143T390 210V520Q390 564 368 587T300 610Q254
610 232 587T210 520V210Q210 167 232 144T300 120ZM95 810L230 950H370L505 810H370L298 880L231 810H95Z" />
<glyph unicode="&#xd5;" horiz-adv-x="600" d="M300 -10Q227 -10 173 17T90 94T60 210V520Q60 586 89 635T173 712T300 740Q374 740 427 713T510 636T540 520V210Q540 144 511 95T428 18T300 -10ZM300 120Q345 120 367 143T390 210V520Q390 564 368 587T300 610Q254
610 232 587T210 520V210Q210 167 232 144T300 120ZM370 800Q338 800 319 809T286 830T262 851T235 860Q222 860 214 851T205 827V805H120V840Q120 892 150 926T230 960Q262 960 281 951T314 930T338 909T365 900Q379 900 387 907T395 928V955H480V920Q480 868
450 834T370 800Z" />
<glyph unicode="&#xd6;" horiz-adv-x="600" d="M300 -10Q227 -10 173 17T90 94T60 210V520Q60 586 89 635T173 712T300 740Q374 740 427 713T510 636T540 520V210Q540 144 511 95T428 18T300 -10ZM300 120Q345 120 367 143T390 210V520Q390 564 368 587T300 610Q254
610 232 587T210 520V210Q210 167 232 144T300 120ZM422 802Q385 802 364 823T342 880Q342 916 363 937T422 958Q459 958 480 937T502 880Q502 844 481 823T422 802ZM178 802Q141 802 120 823T98 880Q98 916 119 937T178 958Q215 958 236 937T258 880Q258 844 237
823T178 802Z" />
<glyph unicode="&#xd7;" horiz-adv-x="600" d="M180 100L77 203L197 323L77 443L180 546L300 426L420 546L523 443L402 323L523 203L420 100L300 221L180 100Z" />
<glyph unicode="&#xd8;" horiz-adv-x="600" d="M15 -40L467 750H585L133 -40H15ZM300 -10Q227 -10 173 17T90 94T60 210V520Q60 586 89 635T173 712T300 740Q374 740 427 713T510 636T540 520V210Q540 144 511 95T428 18T300 -10ZM300 120Q346 120 370 143T395
210V520Q395 564 371 587T300 610Q254 610 230 587T205 520V210Q205 167 229 144T300 120Z" />
<glyph unicode="&#xd9;" horiz-adv-x="600" d="M300 -10Q189 -10 125 50T60 214V730H210V215Q210 169 233 145T300 120Q342 120 366 144T390 215V730H540V214Q540 111 476 51T300 -10ZM493 810L376 950H541L646 810H493Z" />
<glyph unicode="&#xda;" horiz-adv-x="600" d="M300 -10Q189 -10 125 50T60 214V730H210V215Q210 169 233 145T300 120Q342 120 366 144T390 215V730H540V214Q540 111 476 51T300 -10ZM212 810L317 950H478L361 810H212Z" />
<glyph unicode="&#xdb;" horiz-adv-x="600" d="M300 -10Q189 -10 125 50T60 214V730H210V215Q210 169 233 145T300 120Q342 120 366 144T390 215V730H540V214Q540 111 476 51T300 -10ZM95 810L230 950H370L505 810H370L298 880L231 810H95Z" />
<glyph unicode="&#xdc;" horiz-adv-x="600" d="M300 -10Q189 -10 125 50T60 214V730H210V215Q210 169 233 145T300 120Q342 120 366 144T390 215V730H540V214Q540 111 476 51T300 -10ZM422 802Q385 802 364 823T342 880Q342 916 363 937T422 958Q459 958 480 937T502
880Q502 844 481 823T422 802ZM178 802Q141 802 120 823T98 880Q98 916 119 937T178 958Q215 958 236 937T258 880Q258 844 237 823T178 802Z" />
<glyph unicode="&#xdd;" horiz-adv-x="600" d="M225 0V260L15 730H172L264 510Q278 477 288 440T303 380Q308 403 317 440T340 510L429 730H585L375 260V0H225ZM212 810L317 950H478L361 810H212Z" />
<glyph unicode="&#xde;" horiz-adv-x="600" d="M70 0V730H220V595H340Q412 595 463 570T542 496T570 380Q570 280 509 223T340 165H220V0H70ZM220 290H315Q366 290 393 313T420 380Q420 424 393 447T315 470H220V290Z" />
<glyph unicode="&#xdf;" horiz-adv-x="600" d="M60 0V516Q60 583 89 633T172 712T296 740Q372 740 428 716T515 648T547 545Q547 493 524 456T457 400T350 380V395Q413 396 460 373T533 308T560 209Q560 147 529 100T443 26T312 0H260V125H307Q355 125 382 150T409
221Q409 266 382 292T307 318H260V428H305Q347 428 371 452T396 517Q396 562 369 588T295 615Q249 615 222 589T195 516V0H60Z" />
<glyph unicode="&#xe0;" horiz-adv-x="600" d="M229 -10Q146 -10 98 35T49 157Q49 240 106 284T272 329H386V370Q386 402 364 421T303 440Q268 440 245 424T217 380H72Q81 463 144 511T308 560Q413 560 474 509T536 370V0H391V90H367L392 125Q392 63 348 27T229
-10ZM285 100Q329 100 357 123T386 185V244H275Q241 244 220 225T199 173Q199 139 222 120T285 100ZM498 645L381 785H546L651 645H498Z" />
<glyph unicode="&#xe1;" horiz-adv-x="600" d="M229 -10Q146 -10 98 35T49 157Q49 240 106 284T272 329H386V370Q386 402 364 421T303 440Q268 440 245 424T217 380H72Q81 463 144 511T308 560Q413 560 474 509T536 370V0H391V90H367L392 125Q392 63 348 27T229
-10ZM285 100Q329 100 357 123T386 185V244H275Q241 244 220 225T199 173Q199 139 222 120T285 100ZM217 645L322 785H483L366 645H217Z" />
<glyph unicode="&#xe2;" horiz-adv-x="600" d="M229 -10Q146 -10 98 35T49 157Q49 240 106 284T272 329H386V370Q386 402 364 421T303 440Q268 440 245 424T217 380H72Q81 463 144 511T308 560Q413 560 474 509T536 370V0H391V90H367L392 125Q392 63 348 27T229
-10ZM285 100Q329 100 357 123T386 185V244H275Q241 244 220 225T199 173Q199 139 222 120T285 100ZM100 645L235 785H375L510 645H375L303 715L236 645H100Z" />
<glyph unicode="&#xe3;" horiz-adv-x="600" d="M229 -10Q146 -10 98 35T49 157Q49 240 106 284T272 329H386V370Q386 402 364 421T303 440Q268 440 245 424T217 380H72Q81 463 144 511T308 560Q413 560 474 509T536 370V0H391V90H367L392 125Q392 63 348 27T229
-10ZM285 100Q329 100 357 123T386 185V244H275Q241 244 220 225T199 173Q199 139 222 120T285 100ZM375 635Q343 635 324 644T291 665T267 686T240 695Q227 695 219 686T210 662V640H125V675Q125 727 155 761T235 795Q267 795 286 786T319 765T343 744T370 735Q384
735 392 742T400 763V790H485V755Q485 703 455 669T375 635Z" />
<glyph unicode="&#xe4;" horiz-adv-x="600" d="M229 -10Q146 -10 98 35T49 157Q49 240 106 284T272 329H386V370Q386 402 364 421T303 440Q268 440 245 424T217 380H72Q81 463 144 511T308 560Q413 560 474 509T536 370V0H391V90H367L392 125Q392 63 348 27T229
-10ZM285 100Q329 100 357 123T386 185V244H275Q241 244 220 225T199 173Q199 139 222 120T285 100ZM427 637Q390 637 369 658T347 715Q347 751 368 772T427 793Q464 793 485 772T507 715Q507 679 486 658T427 637ZM183 637Q146 637 125 658T103 715Q103 751 124
772T183 793Q220 793 241 772T263 715Q263 679 242 658T183 637Z" />
<glyph unicode="&#xe5;" horiz-adv-x="600" d="M229 -10Q146 -10 98 35T49 157Q49 240 106 284T272 329H386V370Q386 402 364 421T303 440Q268 440 245 424T217 380H72Q81 463 144 511T308 560Q413 560 474 509T536 370V0H391V90H367L392 125Q392 63 348 27T229
-10ZM285 100Q329 100 357 123T386 185V244H275Q241 244 220 225T199 173Q199 139 222 120T285 100ZM305 599Q242 599 204 634T165 726Q165 783 203 818T305 853Q368 853 406 818T445 726Q445 669 407 634T305 599ZM305 669Q332 669 348 685T365 727Q365 752 349
767T305 783Q278 783 262 768T245 726Q245 701 261 685T305 669Z" />
<glyph unicode="&#xe6;" horiz-adv-x="600" d="M172 -10Q111 -10 73 31T35 140V190Q35 253 80 291T200 330H243V410Q243 435 232 449T199 463Q176 463 163 447T150 400H35Q35 472 75 516T181 560Q219 560 243 548T281 519T296 485H304Q307 501 319 518T357 548T420
560Q485 560 525 519T565 410V250H357V140Q357 115 369 101T404 87Q426 87 438 101T450 140H565Q565 73 525 32T420 -10Q382 -10 357 2T320 31T304 65H296Q293 49 279 32T239 2T172 -10ZM199 87Q220 87 231 101T243 140V250H200Q177 250 164 235T150 190V140Q150
115 163 101T199 87ZM357 330H450V410Q450 436 438 449T404 463Q382 463 370 449T357 410V330Z" />
<glyph unicode="&#xe7;" horiz-adv-x="600" d="M193 -225V-155H273Q298 -155 313 -143T328 -119Q328 -96 298 -83T212 -69L247 16H320L301 -39Q332 -41 364 -51T420 -82T443 -133Q443 -170 405 -197T303 -225H193ZM303 -10Q230 -10 175 17T90 94T60 210V340Q60
407 90 456T175 532T303 560Q412 560 477 505T546 355H396Q393 390 369 410T303 430Q258 430 234 407T210 340V210Q210 167 234 144T303 120Q344 120 368 139T396 195H546Q542 100 477 45T303 -10Z" />
<glyph unicode="&#xe8;" horiz-adv-x="600" d="M301 -10Q228 -10 174 17T90 94T60 210V340Q60 406 89 455T173 532T301 560Q374 560 427 533T510 456T540 340V240H203V210Q203 158 228 132T303 105Q338 105 359 117T388 150H535Q517 78 454 34T301 -10ZM397 317V342Q397
393 374 420T301 447Q252 447 228 419T203 340V325L407 327L397 317ZM493 645L376 785H541L646 645H493Z" />
<glyph unicode="&#xe9;" horiz-adv-x="600" d="M301 -10Q228 -10 174 17T90 94T60 210V340Q60 406 89 455T173 532T301 560Q374 560 427 533T510 456T540 340V240H203V210Q203 158 228 132T303 105Q338 105 359 117T388 150H535Q517 78 454 34T301 -10ZM397 317V342Q397
393 374 420T301 447Q252 447 228 419T203 340V325L407 327L397 317ZM212 645L317 785H478L361 645H212Z" />
<glyph unicode="&#xea;" horiz-adv-x="600" d="M301 -10Q228 -10 174 17T90 94T60 210V340Q60 406 89 455T173 532T301 560Q374 560 427 533T510 456T540 340V240H203V210Q203 158 228 132T303 105Q338 105 359 117T388 150H535Q517 78 454 34T301 -10ZM397 317V342Q397
393 374 420T301 447Q252 447 228 419T203 340V325L407 327L397 317ZM95 645L230 785H370L505 645H370L298 715L231 645H95Z" />
<glyph unicode="&#xeb;" horiz-adv-x="600" d="M301 -10Q228 -10 174 17T90 94T60 210V340Q60 406 89 455T173 532T301 560Q374 560 427 533T510 456T540 340V240H203V210Q203 158 228 132T303 105Q338 105 359 117T388 150H535Q517 78 454 34T301 -10ZM397 317V342Q397
393 374 420T301 447Q252 447 228 419T203 340V325L407 327L397 317ZM422 637Q385 637 364 658T342 715Q342 751 363 772T422 793Q459 793 480 772T502 715Q502 679 481 658T422 637ZM178 637Q141 637 120 658T98 715Q98 751 119 772T178 793Q215 793 236 772T258
715Q258 679 237 658T178 637Z" />
<glyph unicode="&#xec;" horiz-adv-x="600" d="M70 0V136H260V415H95V550H400V136H560V0H70ZM513 645L396 785H561L666 645H513Z" />
<glyph unicode="&#xed;" horiz-adv-x="600" d="M70 0V136H260V415H95V550H400V136H560V0H70ZM232 645L337 785H498L381 645H232Z" />
<glyph unicode="&#xee;" horiz-adv-x="600" d="M70 0V136H260V415H95V550H400V136H560V0H70ZM115 645L250 785H390L525 645H390L318 715L251 645H115Z" />
<glyph unicode="&#xef;" horiz-adv-x="600" d="M70 0V136H260V415H95V550H400V136H560V0H70ZM442 637Q405 637 384 658T362 715Q362 751 383 772T442 793Q479 793 500 772T522 715Q522 679 501 658T442 637ZM198 637Q161 637 140 658T118 715Q118 751 139 772T198
793Q235 793 256 772T278 715Q278 679 257 658T198 637Z" />
<glyph unicode="&#xf0;" horiz-adv-x="600" d="M300 0Q222 0 164 29T73 112T40 236Q40 302 65 351T137 428T243 456Q278 456 306 443T354 412T385 375H391Q392 379 375 406T314 489L261 558L106 502V607L198 640L129 730H296L329 688L493 747V642L393 606L446
537Q508 457 534 387T560 251Q560 174 528 118T438 31T300 0ZM300 125Q350 125 380 155T410 235Q410 268 397 293T358 331T300 345Q250 345 220 315T190 235Q190 185 220 155T300 125Z" />
<glyph unicode="&#xf1;" horiz-adv-x="600" d="M66 0V550H211V445H255L211 410Q211 480 251 520T359 560Q439 560 487 504T536 355V0H386V340Q386 383 364 406T300 430Q260 430 238 407T216 340V0H66ZM375 635Q343 635 324 644T291 665T267 686T240 695Q227 695
219 686T210 662V640H125V675Q125 727 155 761T235 795Q267 795 286 786T319 765T343 744T370 735Q384 735 392 742T400 763V790H485V755Q485 703 455 669T375 635Z" />
<glyph unicode="&#xf2;" horiz-adv-x="600" d="M300 -10Q227 -10 173 17T90 94T60 210V340Q60 406 89 455T173 532T300 560Q374 560 427 533T510 456T540 340V210Q540 144 511 95T428 18T300 -10ZM300 120Q344 120 367 143T390 210V340Q390 384 367 407T300 430Q257
430 234 407T210 340V210Q210 167 233 144T300 120ZM493 645L376 785H541L646 645H493Z" />
<glyph unicode="&#xf3;" horiz-adv-x="600" d="M300 -10Q227 -10 173 17T90 94T60 210V340Q60 406 89 455T173 532T300 560Q374 560 427 533T510 456T540 340V210Q540 144 511 95T428 18T300 -10ZM300 120Q344 120 367 143T390 210V340Q390 384 367 407T300 430Q257
430 234 407T210 340V210Q210 167 233 144T300 120ZM212 645L317 785H478L361 645H212Z" />
<glyph unicode="&#xf4;" horiz-adv-x="600" d="M300 -10Q227 -10 173 17T90 94T60 210V340Q60 406 89 455T173 532T300 560Q374 560 427 533T510 456T540 340V210Q540 144 511 95T428 18T300 -10ZM300 120Q344 120 367 143T390 210V340Q390 384 367 407T300 430Q257
430 234 407T210 340V210Q210 167 233 144T300 120ZM95 645L230 785H370L505 645H370L298 715L231 645H95Z" />
<glyph unicode="&#xf5;" horiz-adv-x="600" d="M300 -10Q227 -10 173 17T90 94T60 210V340Q60 406 89 455T173 532T300 560Q374 560 427 533T510 456T540 340V210Q540 144 511 95T428 18T300 -10ZM300 120Q344 120 367 143T390 210V340Q390 384 367 407T300 430Q257
430 234 407T210 340V210Q210 167 233 144T300 120ZM370 635Q338 635 319 644T286 665T262 686T235 695Q222 695 214 686T205 662V640H120V675Q120 727 150 761T230 795Q262 795 281 786T314 765T338 744T365 735Q379 735 387 742T395 763V790H480V755Q480 703
450 669T370 635Z" />
<glyph unicode="&#xf6;" horiz-adv-x="600" d="M300 -10Q227 -10 173 17T90 94T60 210V340Q60 406 89 455T173 532T300 560Q374 560 427 533T510 456T540 340V210Q540 144 511 95T428 18T300 -10ZM300 120Q344 120 367 143T390 210V340Q390 384 367 407T300 430Q257
430 234 407T210 340V210Q210 167 233 144T300 120ZM422 637Q385 637 364 658T342 715Q342 751 363 772T422 793Q459 793 480 772T502 715Q502 679 481 658T422 637ZM178 637Q141 637 120 658T98 715Q98 751 119 772T178 793Q215 793 236 772T258 715Q258 679 237
658T178 637Z" />
<glyph unicode="&#xf7;" horiz-adv-x="600" d="M100 260V400H500V260H100ZM285 60Q251 60 231 79T210 130Q210 162 230 181T285 200H315Q349 200 369 181T390 130Q390 98 370 79T314 60H285ZM285 460Q251 460 231 479T210 530Q210 562 230 581T285 600H315Q349
600 369 581T390 530Q390 498 370 479T314 460H285Z" />
<glyph unicode="&#xf8;" horiz-adv-x="600" d="M25 -30L460 590H575L140 -30H25ZM300 -10Q227 -10 173 17T90 94T60 210V340Q60 406 89 455T173 532T300 560Q374 560 427 533T510 456T540 340V210Q540 144 511 95T428 18T300 -10ZM300 120Q347 120 373 144T400
210V340Q400 382 374 406T300 430Q253 430 227 406T200 340V210Q200 168 226 144T300 120Z" />
<glyph unicode="&#xf9;" horiz-adv-x="600" d="M300 -10Q189 -10 127 50T64 214V550H214V215Q214 169 236 145T300 120Q341 120 363 144T386 215V550H536V214Q536 109 473 50T300 -10ZM493 645L376 785H541L646 645H493Z" />
<glyph unicode="&#xfa;" horiz-adv-x="600" d="M300 -10Q189 -10 127 50T64 214V550H214V215Q214 169 236 145T300 120Q341 120 363 144T386 215V550H536V214Q536 109 473 50T300 -10ZM212 645L317 785H478L361 645H212Z" />
<glyph unicode="&#xfb;" horiz-adv-x="600" d="M300 -10Q189 -10 127 50T64 214V550H214V215Q214 169 236 145T300 120Q341 120 363 144T386 215V550H536V214Q536 109 473 50T300 -10ZM95 645L230 785H370L505 645H370L298 715L231 645H95Z" />
<glyph unicode="&#xfc;" horiz-adv-x="600" d="M300 -10Q189 -10 127 50T64 214V550H214V215Q214 169 236 145T300 120Q341 120 363 144T386 215V550H536V214Q536 109 473 50T300 -10ZM422 637Q385 637 364 658T342 715Q342 751 363 772T422 793Q459 793 480 772T502
715Q502 679 481 658T422 637ZM178 637Q141 637 120 658T98 715Q98 751 119 772T178 793Q215 793 236 772T258 715Q258 679 237 658T178 637Z" />
<glyph unicode="&#xfd;" horiz-adv-x="600" d="M157 -180L232 27L26 550H189L272 310Q281 283 290 245T305 182Q310 206 319 244T338 310L418 550H574L314 -180H157ZM212 645L317 785H478L361 645H212Z" />
<glyph unicode="&#xfe;" horiz-adv-x="600" d="M66 -170V50H211V-170H66ZM357 -10Q289 -10 250 29T211 140L246 105H211V0H66V730H216V580L211 445H246L211 410Q211 481 250 520T357 560Q440 560 490 502T540 345V205Q540 106 490 48T357 -10ZM303 120Q345 120
367 143T390 210V340Q390 383 368 406T303 430Q262 430 239 407T216 340V210Q216 167 239 144T303 120Z" />
<glyph unicode="&#xff;" horiz-adv-x="600" d="M157 -180L232 27L26 550H189L272 310Q281 283 290 245T305 182Q310 206 319 244T338 310L418 550H574L314 -180H157ZM422 637Q385 637 364 658T342 715Q342 751 363 772T422 793Q459 793 480 772T502 715Q502 679
481 658T422 637ZM178 637Q141 637 120 658T98 715Q98 751 119 772T178 793Q215 793 236 772T258 715Q258 679 237 658T178 637Z" />
<glyph unicode="&#x2013;" horiz-adv-x="600" d="M75 260V400H525V260H75Z" />
<glyph unicode="&#x2014;" horiz-adv-x="600" d="M0 260V400H600V260H0Z" />
<glyph unicode="&#x2018;" horiz-adv-x="600" d="M465 775L385 464H205L335 775H465Z" />
<glyph unicode="&#x2019;" horiz-adv-x="600" d="M135 465L215 776H395L265 465H135Z" />
<glyph unicode="&#x201a;" horiz-adv-x="600" d="M140 -160L220 151H400L270 -160H140Z" />
<glyph unicode="&#x201c;" horiz-adv-x="600" d="M295 465L425 776H555L475 465H295ZM35 465L165 776H295L215 465H35Z" />
<glyph unicode="&#x201d;" horiz-adv-x="600" d="M305 465L385 776H565L435 465H305ZM45 465L125 776H305L175 465H45Z" />
<glyph unicode="&#x201e;" horiz-adv-x="600" d="M305 -160L385 151H565L435 -160H305ZM45 -160L125 151H305L175 -160H45Z" />
<glyph unicode="&#x2022;" horiz-adv-x="600" d="M300 230Q240 230 203 267T165 365Q165 425 202 462T300 500Q360 500 397 463T435 365Q435 305 398 268T300 230Z" />
<glyph unicode="&#x2039;" horiz-adv-x="600" d="M310 40L135 280L310 520H460L289 281L465 40H310Z" />
<glyph unicode="&#x203a;" horiz-adv-x="600" d="M140 40L311 279L135 520H290L465 280L290 40H140Z" />
</font>
</defs>
</svg>
